Ольга / Сезон: 1 / Серии: 1-20 из 20 (Алексей Нужный, Игорь Волошин) [2016, Комедия, драма, WEBRip 720p]

 Статистика раздачи 
Размер: 11.7 ГБ   |  Зарегистрирован: 01 фев 2018, 18:17   |   .torrent скачан: 28266 раз
Сидеров: 65  [ 0 байт/сек ]     Личеров: 27  [ 0 байт/сек ]  
  
Аватара пользователя
 
Раздал: 0 байт
Скачал: 0 байт
Ратио: Inf.
Сообщения: 184681
Стаж: 7 лет 9 месяцев 27 дней
Откуда: Rossiya

Ольга
Год выпуска: 2016
Производство: Россия, Гуд Стори Медиа
Жанр: Комедия, драма
Продолжительность: ~ 00:24:00 / Серия
Субтитры: Нет
Режиссёр: Алексей Нужный, Игорь Волошин
В ролях: Яна Троянова, Василий Кортуков, Алина Алексеева, Ксения Суркова, Сергей Романович, Максим Костромыкин, Фархад Гусейнов, Борис Дергачев, Александр Шам, Александр Никольский
Описание: Ольга — обычная русская женщина, которая одна «воспитывает» детей от разных браков, отца-алкоголика и бесшабашную сестру. При этом она остаётся жизнерадостной, сохраняет оптимизм и верит в «светлое» будущее.

Качество: WEBRip 720p
Формат: MKV
Видео кодек: MPEG-4 AVC
Аудио кодек: AC3
Видео: XviD, 1280x720 (16:9), ~ 3500 Кбит/с, 25 кадр/с, 0.152 bit/pixel
Аудио: Русский, Dolby AC3, 48000 Гц, 192 Кбит/с, 2 канала (Стерео)
Все раздачи сериала

Релиз от: ivandubskoj
General
Unique ID : 221839142631026769855702607645303028687 (0xA6E4AA2DE8EB32EC92D7E81BCA5EBBCF)
Complete name : Ol'ga.s01.e01.2016.WEB-DL.720p.mkv
Format : Matroska
Format version : Version 4 / Version 2
File size : 600 MiB
Duration : 22mn 15s
Overall bit rate : 3 770 Kbps
Encoded date : UTC 2016-09-05 21:28:19
Writing application : mkvmerge v7.9.0 ('Birds') 64bit
Writing library : libebml v1.3.1 + libmatroska v1.4.2
Video
ID : 1
Format : AVC
Format/Info : Advanced Video Codec
Format profile : High@L3.1
Format settings, CABAC : Yes
Format settings, ReFrames : 1 frame
Format settings, GOP : M=1, N=12
Codec ID : V_MPEG4/ISO/AVC
Duration : 22mn 15s
Bit rate : 3 503 Kbps
Width : 1 280 pixels
Height : 720 pixels
Display aspect ratio : 16:9
Frame rate mode : Constant
Frame rate : 25.000 fps
Standard : Component
Color space : YUV
Chroma subsampling : 4:2:0
Bit depth : 8 bits
Scan type : Progressive
Bits/(Pixel*Frame) : 0.152
Stream size : 558 MiB (93%)
Language : Russian
Default : Yes
Forced : No
Color range : Limited
Audio
ID : 2
Format : AC-3
Format/Info : Audio Coding 3
Mode extension : CM (complete main)
Format settings, Endianness : Big
Codec ID : A_AC3
Duration : 22mn 15s
Bit rate mode : Constant
Bit rate : 192 Kbps
Channel(s) : 2 channels
Channel positions : Front: L R
Sampling rate : 48.0 KHz
Bit depth : 16 bits
Compression mode : Lossy
Stream size : 30.6 MiB (5%)
Language : Russian
Default : Yes
Forced : No
Не забывайте говорить Спасибо. Не уходите с раздачи!   
Торрент: Зарегистрирован [01 фев 2018, 18:17] Для скачивания .torrent
необходима регистрация
Или скачать с помощью
MediaGet
Статус:
Проверен
 
.torrent скачан: 28266 раз
Хэш: 5e35245d76e622ee67f80b26018cb4e44ba7c3a8
Размер: 11.7 ГБ (12 567 204 031 байт)
   Стать Автором раздачи
   
Цитата

Вернуться в Ольга / Физрук

Кто сейчас на конференции

Сейчас эту тему просматривают: нет зарегистрированных пользователей и гости: 1