Физрук / Сезон: 4 / Серии: 1-16 из 16 / От звонка до звонка (Игорь Волошин) [2017, Комедия, HDTV 1080i]

 Статистика раздачи 
Размер: 20.25 ГБ   |  Зарегистрирован: 01 фев 2018, 18:16   |   .torrent скачан: 0 раз
Сидеров: 64  [ 0 байт/сек ]     Личеров: 21  [ 0 байт/сек ]  
  
Аватара пользователя
 
Раздал: 0 байт
Скачал: 0 байт
Ратио: Inf.
Сообщения: 182312
Стаж: 7 лет 7 месяцев 26 дней
Откуда: Rossiya

Физрук
Год выпуска: 2017
Производство: Россия, Good Story Media
Жанр: Комедия
Продолжительность: ~00:23:00
Режиссёр: Игорь Волошин
В ролях: Дмитрий Нагиев, Виктор Сухоруков, Софья Райзман, Даниил Муравьев-Изотов, Александр Якин, Георгий Кудренко, Анастасия Акатова
Описание: Железногорск, классическая русская провинция, не богатая, но уютная и знакомая. Здесь и коррумпированные чиновники, и низкие зарплаты, и плохие дороги… Другими словами — привычный набор наших общероссийских проблем, одна из которых — противостояние драматического театра и местной администрации, в лице худрука Эрнеста Шиловского и зам мэра Горыжникова. Шиловский весь в долгах, а местные власти претендуют на здание театра, чтобы перестроить его под торговый центр.Фома знакомится с отцом — немного странным, совершенно непохожим на него человеком, и принимает Эрнеста Петровича со всеми его недостатками и проблемами. А раз так, то Фома остается в Железногорске, и будет спасать местный театр, а заодно наведет в городе свой порядок. Физрук теперь худрук
Реклама: ТНТ-шная, всплывающая
Все раздачи сериала: http://rutracker.org/forum/tracker.php?f=1408&nm=%D4%E8%E7%F0%F3%EA
Сэмпл: http://multi-up.com/1171567
Качество: HDTV 1080i
Формат: M2TS
Видео кодек: H.264
Аудио кодек: MPEG Audio
Видео: AVC at 7799 Кбит/сек Aspect : 1920 x 1080 (1.778) at 25.000 fps
Аудио: MPEG Audio at 192 Кбит/сек Infos : 2 канала, 48,0 КГц
Общее
Идентификатор : 1 (0x1)
Полное имя : E:\MPEG\Физрук.4 Сезон.2017.HDTV 1080i.RG Русские сериалы\s04e01.ts
Формат : MPEG-TS
Размер файла : 1,40 Гбайт
Продолжительность : 23 м.
Режим общего битрейта : Переменный
Общий поток : 8408 Кбит/сек
Видео
Идентификатор : 207 (0xCF)
Идентификатор меню : 2207 (0x89F)
Формат : AVC
Формат/Информация : Advanced Video Codec
Профиль формата : High@L4
Параметр CABAC формата : Да
Параметр ReFrames формата : 4 кадра
Идентификатор кодека : 27
Продолжительность : 23 м.
Битрейт : 7799 Кбит/сек
Ширина : 1920 пикселей
Высота : 1080 пикселей
Соотношение сторон : 16:9
Частота кадров : 25,000 кадров/сек
Стандарт вещания : Component
Цветовое пространство : YUV
Субдискретизация насыщенности : 4:2:0
Битовая глубина : 8 бит
Тип развёртки : Чересстрочная
Порядок развёртки : Верхнее поле первое
Бит/(Пиксели*Кадры) : 0.150
Размер потока : 1,30 Гбайт (93%)
Цветовой диапазон : Limited
Основные цвета : BT.709
Характеристики трансфера : BT.709
Коэффициенты матрицы : BT.709
Аудио
Идентификатор : 307 (0x133)
Идентификатор меню : 2207 (0x89F)
Формат : MPEG Audio
Версия формата : Version 1
Профиль формата : Layer 2
Идентификатор кодека : 3
Продолжительность : 23 м.
Вид битрейта : Постоянный
Битрейт : 192 Кбит/сек
Каналы : 2 канала
Частота : 48,0 КГц
Метод сжатия : С потерями
Размер потока : 32,8 Мбайт (2%)
Язык : Russian





Внимание! Раздача ведётся путём добавления новых серий; при каждом добавлении создаётся новый торрент. Чтобы начать докачку новой серии, пользователям необходимо сделать следующее:
(1) остановить скачивание,
(2) удалить старый торрент у себя из клиента (старые серии удалять не надо),
(3) скачать новый торрент и запустить его у себя в клиенте вместо старого, при этом указать клиенту путь в старую папку куда и должно происходить скачивание новых серий.
Ваш клиент при этом должен произвести хеширование (проверку) старой папки (если не производит сам - помогите ему сделать это), и будет докачивать только те серии которых у вас ещё нет. Старые серии при этом не удаляются, а продолжают раздаваться!
Eсли вы уже удалили старые серии, то предотвратить повторную закачку старых серий можно, сняв галочку в соответствующих местах при запуске нового торрента. По возможности, желательно не удалять старые серии как можно дольше чтобы релизёр не столько продолжал раздавать старые серии, а смог сконцентрироваться на новых.
Релиз
03.11. Добавил Фильм о фильме "От звонка до звонка"
Не забывайте говорить Спасибо. Не уходите с раздачи!   
Торрент: Зарегистрирован [01 фев 2018, 18:16] Для скачивания .torrent
необходима регистрация
Или скачать с помощью
MediaGet
Статус:
Проверен
 
.torrent скачан: 0 раз
Размер: 20.25 ГБ (21 746 219 252 байт)
   Стать Автором раздачи
   
Цитата

Вернуться в Ольга / Физрук

Кто сейчас на конференции

Сейчас эту тему просматривают: нет зарегистрированных пользователей и гости: 1