Физрук / Сезон 1-3 / Серии: 1-61 из 61 (Сергей Сенцов, Фёдор Стуков, Дмитрий Губарев) [2014-2016, комедия, WEBRip (720p)]

 Статистика раздачи 
Размер: 30.45 ГБ   |  Зарегистрирован: 01 фев 2018, 18:16   |   .torrent скачан: 0 раз
Сидеров: 68  [ 0 байт/сек ]     Личеров: 22  [ 0 байт/сек ]  
  
Аватара пользователя
 
Раздал: 0 байт
Скачал: 0 байт
Ратио: Inf.
Сообщения: 157332
Стаж: 7 лет 5 месяцев 25 дней
Откуда: Rossiya

Физрук


Год выпуска: 2014-2016
Производство: "Good Story Media, Канал ТНТ, A+ Production"
Жанр: комедия
Продолжительность: 00:24:00
Субтитры: нет
Режиссёр: Сергей Сенцов, Фёдор Стуков, Дмитрий Губарев
В ролях:
Дмитрий Нагиев, Полина Гренц, Анастасия Панина, Владимир Сычёв, Александр Гордон (II), Артур Сопельник, Виктория Клинкова, Андрей Крыжний, Даниил Вахрушев, Оксана Сидоренко, Роман Индык, Елена Муравьёва, Евгений Кулаков, Карина Мишулина, Наталья Коренная, Владимир Жеребцов, Ян Цапник, Екатерина Мельник, Юрий Устюгов, Екатерина Айсина, Мария Киселёва (II), Иван Мудров, Илья Соколов (II), Дмитрий Гогу, Юнона Захарьева, Андрей Фандеев, Мария Белова, Анастасия Гранкина, Вадим Прокопов, Егор Пежемский
Описание:
Это история о столкновении двух времен: «лихих» 90-х и «стабильных» десятых. Главный герой Фома всю жизнь был «правой рукой» влиятельного человека с полукриминальным прошлым. Когда «хозяин» выгнал его на пенсию, Фома решил любым способом вернуться обратно. Сначала казалось, что все будет просто: подобраться к ребенку бывшего босса, прогнуться, напомнить о себе и вернуться в дело. Но план Фомы рушится в первый же день. В школе ему приходится задержаться надолго. Попав в абсолютно незнакомый мир детей и учителей, который кардинально отличается от привычного ему круга, Фома не только меняет свою жизнь, но и меняется сам.
Все раздачи сериала
Возраст: 16+
Качество: WEBRip (720p)
Формат: MKV
Видео кодек: AVC
Аудио кодек: AC3

Видео: AVC, 1280 х 720 (16:9), 25,000 кадр/сек, 2 057 Кбит/сек, 0.089 bit/pixel
Аудио: AC3, 48000 Hz, 192 Kbps, 2 канала
General
Unique ID : 251208605963173564048929173234298757856 (0xBCFD0484CA6A11C68A0240DBD56DA2E0)
Complete name : D:\Раздачи\Физрук (1-3 сезон 1-61 серии из 61) WEB-DL (720p)\Season 3 WEB-DL (720p)\Физрук. Сезон 3. Серия 12 (2016).mkv
Format : Matroska
Format version : Version 2
File size : 346 MiB
Duration : 21mn 6s
Overall bit rate : 2 294 Kbps
Movie name : Fizruk.03.(12.seriya).2016.WEB-DL.(720p) @ release by Nikolspup
Encoded date : UTC 2016-05-24 16:51:20
Writing application : mkvmerge v5.8.0 ('No Sleep / Pillow') built on Sep 2 2012 15:37:04
Writing library : libebml v1.2.3 + libmatroska v1.3.0
Video
ID : 1
Format : AVC
Format/Info : Advanced Video Codec
Format profile : [email protected]
Format settings, CABAC : Yes
Format settings, ReFrames : 1 frame
Format settings, GOP : M=1, N=12
Codec ID : V_MPEG4/ISO/AVC
Duration : 21mn 6s
Bit rate : 2 057 Kbps
Width : 1 280 pixels
Height : 720 pixels
Display aspect ratio : 16:9
Frame rate mode : Constant
Frame rate : 25.000 fps
Standard : Component
Color space : YUV
Chroma subsampling : 4:2:0
Bit depth : 8 bits
Scan type : Progressive
Bits/(Pixel*Frame) : 0.089
Stream size : 311 MiB (90%)
Default : No
Forced : No
Color range : Limited
Audio
ID : 2
Format : AC-3
Format/Info : Audio Coding 3
Mode extension : CM (complete main)
Format settings, Endianness : Big
Codec ID : A_AC3
Duration : 21mn 6s
Bit rate mode : Constant
Bit rate : 192 Kbps
Channel(s) : 2 channels
Channel positions : Front: L R
Sampling rate : 48.0 KHz
Frame rate : 31.250 fps (1536 spf)
Compression mode : Lossy
Stream size : 29.0 MiB (8%)
Language : Russian
Default : Yes
Forced : Yes


Раздаю до первых 5-ти скачавших, на раздачи не возвращаюсь...

   
Торрент: Зарегистрирован [01 фев 2018, 18:16] Ольга / Физрук Скачать торрент Магнет ссылка
Скачать торрент
[ Размер 158.47 КБ / Просмотров 7 ]
Статус:
Проверен
 
.torrent скачан: 0 раз
Размер: 30.45 ГБ (32 690 460 919 байт)
   Стать Автором раздачи
 
 
Цитата

Вернуться в Ольга / Физрук

Кто сейчас на конференции

Сейчас эту тему просматривают: нет зарегистрированных пользователей и гости: 1