Физрук / Сезон: 4 / Серии: 1-16 из 16 (Игорь Волошин) [2017, Комедия, WEBRip]

 Статистика раздачи 
Размер: 4.68 ГБ   |  Зарегистрирован: 01 фев 2018, 18:16   |   .torrent скачан: 0 раз
Сидеров: 0  [ 0 байт/сек ]     Личеров: 0  [ 0 байт/сек ]  
  
Аватара пользователя
 
Раздал: 0 байт
Скачал: 0 байт
Ратио: Inf.
Сообщения: 183661
Стаж: 7 лет 8 месяцев 6 дней
Откуда: Rossiya

Физрук
Год выпуска: 2017
Производство: Россия, Good Story Media
Жанр: Комедия
Продолжительность: ~ 00:24:00 / Серия
Субтитры: нет
Режиссёр: Игорь Волошин
В ролях: Дмитрий Нагиев, Александр Гордон (II), Полина Гренц, Анастасия Панина, Владимир Сычёв, Даниил Вахрушев, Андрей Крыжний, Артур Сопельник, Оксана Сидоренко, Карина Мишулина, Роман Индык, Елена Муравьёва, Евгений Кулаков, Виктория Клинкова, Екатерина Мельник, Ян Цапник, Екатерина Айсина, Наталья Коренная, Варвара Богданова, Мария Киселёва (II), Иван Мудров, Дмитрий Гогу, Владимир Жеребцов, Владимир Епископосян, Сергей Серов, Сергей Журавлёв, Любовь Германова, Борис Клюев, Дмитрий Власкин, Екатерина Шукшина
Описание: В четвёртом сезоне главный физрук страны вернётся не в школу, а в театр. Физруку Фоме придётся спасать театр города Железногородска от Банкротства. Туда его приведёт неизменное чувство справедливости и родственные связи. Руководителем провинциального театра, находящегося на грани упадка, является его биологический отец Эрнест Петрович Шиловский. Театр собирается прибрать к рукам местный чиновник, чтобы построить на его месте самый обычный торговый центр. Фоме придётся сделать всё, чтобы помочь отцу спасти его детище.
Все раздачи сериала
Сэмпл
Релиз-группа
Без рекламы
Качество: WEBRip
Формат: AVI
Видео кодек: Xvid
Аудио кодек: AC3
Видео: 720x400 (1.80:1), 25 fps, XviD build 73 ~1529 kbps avg, 0.21 bit/pixel
Аудио: 48 kHz, AC3 Dolby Digital, 2/0 (L,R) ch, ~192 kbps
Раздача ведётся путём добавления новых серий, при каждом добавлении создаётся новый торрент. Чтобы начать докачку новой серии, пользователям необходимо сделать следующее:
- Остановить скачивание.
- Удалить старый торрент у себя из клиента (старые серии удалять не надо).
- Скачать новый торрент и запустить его у себя в клиенте вместо старого, при этом указать клиенту путь в старую папку куда и должно происходить скачивание новых серий.
Ваш клиент при этом должен произвести хеширование (проверку) старой папки (если не производит сам - помогите ему сделать это), и будет докачивать только те серии которых у вас ещё нет. Старые серии при этом не удаляются, а продолжают раздаваться!
Если вы уже удалили старые серии, то предотвратить повторную закачку старых серий можно, отжав галочку в соответствующих местах при запуске нового торрента. По возможности, желательно не удалять старые серии как можно дольше, чтобы релизер не столько продолжал раздавать старые серии, а смог сконцентрироваться на новых.
Код: Выделить всё
Общее
Полное имя                               : D:\Торрент\Fizruk.4.2017.WEB-DLRip.Files-x\01.Fizruk.4.2017.WEB-DLRip.Files-x.avi
Формат                                   : AVI
Формат/Информация                        : Audio Video Interleave
Размер файла                             : 301 Мбайт
Продолжительность                        : 24 м. 18 с.
Общий поток                              : 1731 Кбит/сек
Программа кодирования                    : VirtualDubMod 1.5.10.3 | www.virtualdub-fr.org || (build 2550/release)
Библиотека кодирования                   : VirtualDubMod build 2550/release
Видео
Идентификатор                            : 0
Формат                                   : MPEG-4 Visual
Профиль формата                          : Advanced Simple@L5
Параметр BVOP формата                    : 1
Параметр QPel формата                    : Нет
Параметр GMC формата                     : Без точки перехода
Параметр матрицы формата                 : Выборочная
Идентификатор кодека                     : XVID
Идентификатор кодека/Подсказка           : XviD
Продолжительность                        : 24 м. 18 с.
Битрейт                                  : 1529 Кбит/сек
Ширина                                   : 720 пикселей
Высота                                   : 400 пикселей
Соотношение сторон                       : 16:9
Частота кадров                           : 25,000 кадров/сек
Цветовое пространство                    : YUV
Субдискретизация насыщенности            : 4:2:0
Битовая глубина                          : 8 бит
Тип развёртки                            : Прогрессивная
Метод сжатия                             : С потерями
Бит/(Пиксели*Кадры)                      : 0.212
Размер потока                            : 266 Мбайт (88%)
Библиотека кодирования                   : XviD 73
Аудио
Идентификатор                            : 1
Формат                                   : AC-3
Формат/Информация                        : Audio Coding 3
Расширение режима                        : CM (complete main)
Параметр Endianness формата              : Big
Идентификатор кодека                     : 2000
Продолжительность                        : 24 м. 18 с.
Вид битрейта                             : Постоянный
Битрейт                                  : 192 Кбит/сек
Каналы                                   : 2 канала
Расположение каналов                     : Front: L R
Частота                                  : 48,0 КГц
Частота кадров                           : 31,250 кадров/сек (1536 spf)
Битовая глубина                          : 16 бит
Метод сжатия                             : С потерями
Размер потока                            : 33,4 Мбайт (11%)
Выравнивание                             : Разделение по промежуткам
Продолжительность промежутка             : 40  мс. (1,00 видеокадр)
Время предзагрузки промежутка            : 500  мс.

Не забывайте говорить Спасибо. Не уходите с раздачи!   
Торрент: Зарегистрирован [01 фев 2018, 18:16] Для скачивания .torrent
необходима регистрация
Или скачать с помощью
MediaGet
Статус:
Проверен
 
.torrent скачан: 0 раз
Размер: 4.68 ГБ (5 021 972 480 байт)
   Стать Автором раздачи
   
Цитата

Вернуться в Ольга / Физрук

Кто сейчас на конференции

Сейчас эту тему просматривают: нет зарегистрированных пользователей и гости: 1