Физрук / Сезон: 3 / Серии: 1-21 из 21 (Дмитрий Губарев) [2016, комедия, WEBRip]

 Статистика раздачи 
Размер: 6.92 ГБ   |  Зарегистрирован: 01 фев 2018, 18:16   |   .torrent скачан: 0 раз
Сидеров: 32  [ 0 байт/сек ]     Личеров: 11  [ 0 байт/сек ]  
  
Аватара пользователя
 
Раздал: 0 байт
Скачал: 0 байт
Ратио: Inf.
Сообщения: 157332
Стаж: 7 лет 5 месяцев 25 дней
Откуда: Rossiya

Физрук
Год выпуска: 2016
Производство
: Good Story Media
Жанр: комедия
Продолжительность: 00:23:36
Субтитры: нет
Режиссёр: Дмитрий Губарев
В ролях: Дмитрий Нагиев, Александр Гордон (II), Полина Гренц, Анастасия Панина, Владимир Сычёв, Даниил Вахрушев, Андрей Крыжний, Артур Сопельник, Оксана Сидоренко, Карина Мишулина
Описание: Во время финального судебного заседания с Олега Евгеньевича Фомина снимают все обвинения. Оказавшись на свободе, он видит, что жизнь его друзей и близких сильно изменилась. У Психа кризис среднего возраста, Таня строит новые отношения, а Саша Мамаева была вынуждена отдать бизнес отца Лене и теперь едва сводит концы с концами. Когда Фома узнает, что в истории с бизнесом Мамая снова замешана Лена, он понимает, что его долг — вернуть все обратно Саше как законной наследнице. Но сделать это будет очень непросто: на стороне Лены деньги, связи и армия головорезов, зато в арсенале Фомы надежная команда и новая невероятная схема, в которой замешаны школа, Татьяна Александровна и даже президент России. Фома собирает вместе всю старую банду, а также призывает на помощь своего нового друга Мишу по кличке Буддист. Он не просто хороший знакомый Фомы, а его наставник и духовник. Продвигаясь к цели, Фома будет отвечать на многочисленные вопросы Буддиста, главные из которых «Кто я?» и «Каково мое место в мире?». Все вместе они отправятся на поиски истины, счастья и справедливости. Вместо трех у них на всех всего одно заветное желание, и компаньоны уверены, что оно обязательно сбудется.
Все раздачи сериала
Сэмпл
Качество: WEBRip
Формат
: AVI
Видео кодек: XviD
Аудио кодек: AC3
Видео: 704x400 (1.76:1), 25 fps, XviD build 73 ~1799 kbps avg, 0.26 bit/pixel
Аудио: 48 kHz, AC3 Dolby Digital, 2/0 (L,R) ch, ~192 kbps
Общее
Полное имя : H:\Физрук.2014.web-dlrip_[teko]\Сезон_03\s03e19.avi
Формат : AVI
Формат/Информация : Audio Video Interleave
Размер файла : 343 Мбайт
Продолжительность : 23 м.
Общий поток : 2002 Кбит/сек
Программа кодирования : VirtualDubMod 1.5.10.3 | www.virtualdub-fr.org || (build 2550/release)
Библиотека кодирования : VirtualDubMod build 2550/release
Видео
Идентификатор : 0
Формат : MPEG-4 Visual
Профиль формата : Advanced [email protected]
Параметр BVOP формата : 2
Параметр QPel формата : Нет
Параметр GMC формата : Без точки перехода
Параметр матрицы формата : Выборочная
Идентификатор кодека : XVID
Идентификатор кодека/Подсказка : XviD
Продолжительность : 23 м.
Битрейт : 1800 Кбит/сек
Ширина : 704 пикселя
Высота : 400 пикселей
Соотношение сторон : 16:9
Частота кадров : 25,000 кадров/сек
Цветовое пространство : YUV
Субдискретизация насыщенности : 4:2:0
Битовая глубина : 8 бит
Тип развёртки : Прогрессивная
Метод сжатия : С потерями
Бит/(Пиксели*Кадры) : 0.256
Размер потока : 308 Мбайт (90%)
Библиотека кодирования : XviD 73
Аудио
Идентификатор : 1
Формат : AC-3
Формат/Информация : Audio Coding 3
Расширение режима : CM (complete main)
Параметр Endianness формата : Big
Идентификатор кодека : 2000
Продолжительность : 23 м.
Вид битрейта : Постоянный
Битрейт : 192 Кбит/сек
Каналы : 2 канала
Расположение каналов : Front: L R
Частота : 48,0 КГц
Битовая глубина : 16 бит
Метод сжатия : С потерями
Размер потока : 32,9 Мбайт (10%)
Выравнивание : Разделение по промежуткам
Продолжительность промежутка : 40 мс. (1,00 видеокадр)
Время предзагрузки промежутка : 500 мс.
Релиз группы:


   
Торрент: Зарегистрирован [01 фев 2018, 18:16] Ольга / Физрук Скачать торрент Магнет ссылка
Скачать торрент
[ Размер 36.26 КБ / Просмотров 0 ]
Статус:
Проверен
 
.torrent скачан: 0 раз
Размер: 6.92 ГБ (7 434 815 488 байт)
   Стать Автором раздачи
 
 
Цитата

Вернуться в Ольга / Физрук

Кто сейчас на конференции

Сейчас эту тему просматривают: нет зарегистрированных пользователей и гости: 1