Физрук / Сезон: 1 / Серии: 1-20 из 20 (Сергей Сенцов) [2014, комедия, WEBRip]

 Статистика раздачи 
Размер: 6.27 ГБ   |  Зарегистрирован: 01 фев 2018, 18:16   |   .torrent скачан: 0 раз
Сидеров: 12  [ 0 байт/сек ]     Личеров: 4  [ 0 байт/сек ]  
  
Аватара пользователя
 
Раздал: 0 байт
Скачал: 0 байт
Ратио: Inf.
Сообщения: 182312
Стаж: 7 лет 7 месяцев 26 дней
Откуда: Rossiya

Физрук
Год выпуска: 2014
Производство
: Good Story Media
Жанр: комедия
Продолжительность: 00:25:41
Субтитры: нет
Режиссёр: Сергей Сенцов
В ролях: Анастасия Панина, Дмитрий Нагиев, Андрей Крыжний, Карина Мишулина, Максим Артамонов, Наталья Коренная, Владимир Жеребцов, Артур Сопельник, Ян Цапник, Елена Муравьёва, Роман Индык, Елена Коллегова
Описание: Это история о столкновении двух времен: «лихих» 90-х и «стабильных» десятых. Главный герой Фома всю жизнь был «правой рукой» влиятельного человека с полукриминальным прошлым. Когда «хозяин» выгнал его на пенсию, Фома решил любым способом вернуться обратно. Сначала казалось, что все будет просто: подобраться к сыну бывшего босса, прогнуться, напомнить о себе и вернуться в дело. Но план Фомы рушится в первый же день. В школе ему приходится задержаться надолго.
Все раздачи сериала
Сэмпл
Качество: WEBRip
Формат
: AVI
Видео кодек: XviD
Аудио кодек: AC3
Видео: 704x400 (1.76:1), 25 fps, XviD build 73 ~1799 kbps avg, 0.26 bit/pixel
Аудио: 48 kHz, AC3 Dolby Digital, 2/0 (L,R) ch, ~192 kbps
Общее
Полное имя : H:\Сезон_01\s01e01 .avi
Формат : AVI
Формат/Информация : Audio Video Interleave
Размер файла : 368 Мбайт
Продолжительность : 25 м.
Общий поток : 2002 Кбит/сек
Программа кодирования : VirtualDubMod 1.5.10.3 | www.virtualdub-fr.org || (build 2550/release)
Библиотека кодирования : VirtualDubMod build 2550/release
Видео
Идентификатор : 0
Формат : MPEG-4 Visual
Профиль формата : Advanced Simple@L5
Параметр BVOP формата : 2
Параметр QPel формата : Нет
Параметр GMC формата : Без точки перехода
Параметр матрицы формата : Выборочная
Идентификатор кодека : XVID
Идентификатор кодека/Подсказка : XviD
Продолжительность : 25 м.
Битрейт : 1800 Кбит/сек
Ширина : 704 пикселя
Высота : 400 пикселей
Соотношение сторон : 16:9
Частота кадров : 25,000 кадров/сек
Цветовое пространство : YUV
Субдискретизация насыщенности : 4:2:0
Битовая глубина : 8 бит
Тип развёртки : Прогрессивная
Метод сжатия : С потерями
Бит/(Пиксели*Кадры) : 0.256
Размер потока : 331 Мбайт (90%)
Библиотека кодирования : XviD 73
Аудио
Идентификатор : 1
Формат : AC-3
Формат/Информация : Audio Coding 3
Расширение режима : CM (complete main)
Параметр Endianness формата : Big
Идентификатор кодека : 2000
Продолжительность : 25 м.
Вид битрейта : Постоянный
Битрейт : 192 Кбит/сек
Каналы : 2 канала
Расположение каналов : Front: L R
Частота : 48,0 КГц
Битовая глубина : 16 бит
Метод сжатия : С потерями
Размер потока : 35,3 Мбайт (10%)
Выравнивание : Разделение по промежуткам
Продолжительность промежутка : 40 мс. (1,00 видеокадр)
Время предзагрузки промежутка : 500 мс.
Релиз группы:


Не забывайте говорить Спасибо. Не уходите с раздачи!   
Торрент: Зарегистрирован [01 фев 2018, 18:16] Для скачивания .torrent
необходима регистрация
Или скачать с помощью
MediaGet
Статус:
Проверен
 
.torrent скачан: 0 раз
Размер: 6.27 ГБ (6 729 885 696 байт)
   Стать Автором раздачи
   
Цитата

Вернуться в Ольга / Физрук

Кто сейчас на конференции

Сейчас эту тему просматривают: нет зарегистрированных пользователей и гости: 1