Физрук / Сезон: 4 / Серии: 1-16 из 16 (Игорь Волошин) [2017, Комедия, WEBRip 720p]

 Статистика раздачи 
Размер: 9.53 ГБ   |  Зарегистрирован: 01 фев 2018, 18:16   |   .torrent скачан: 0 раз
Сидеров: 0  [ 0 байт/сек ]     Личеров: 0  [ 0 байт/сек ]  
  
Аватара пользователя
 
Раздал: 0 байт
Скачал: 0 байт
Ратио: Inf.
Сообщения: 160606
Стаж: 7 лет 6 месяцев 2 дня
Откуда: Rossiya

Физрук
Год выпуска: 2017
Производство: Россия, Good Story Media
Жанр: Комедия
Продолжительность: ~ 00:24:00 / Серия
Субтитры: нет
Режиссёр: Игорь Волошин
В ролях: Дмитрий Нагиев, Александр Гордон (II), Полина Гренц, Анастасия Панина, Владимир Сычёв, Даниил Вахрушев, Андрей Крыжний, Артур Сопельник, Оксана Сидоренко, Карина Мишулина, Роман Индык, Елена Муравьёва, Евгений Кулаков, Виктория Клинкова, Екатерина Мельник, Ян Цапник, Екатерина Айсина, Наталья Коренная, Варвара Богданова, Мария Киселёва (II), Иван Мудров, Дмитрий Гогу, Владимир Жеребцов, Владимир Епископосян, Сергей Серов, Сергей Журавлёв, Любовь Германова, Борис Клюев, Дмитрий Власкин, Екатерина Шукшина
Описание: В четвёртом сезоне главный физрук страны вернётся не в школу, а в театр. Физруку Фоме придётся спасать театр города Железногородска от Банкротства. Туда его приведёт неизменное чувство справедливости и родственные связи. Руководителем провинциального театра, находящегося на грани упадка, является его биологический отец Эрнест Петрович Шиловский. Театр собирается прибрать к рукам местный чиновник, чтобы построить на его месте самый обычный торговый центр. Фоме придётся сделать всё, чтобы помочь отцу спасти его детище.
Все раздачи сериала
Сэмпл
Релиз-группа: TorpedoUK от OlLanDGroup / Без рекламы
Качество: WEBRip 720p
Формат: mkv
Видео кодек: MPEG-4 AVC
Аудио кодек: AC3
Видео: 1280x720 (16:9), 25 fps, MPEG-4 AVC ~3 500 kbps avg, 0.151 bit/pixel
Аудио: 48 KHz, AC3, 2 ch, ~192.00 kbps avg
Раздача ведётся путём добавления новых серий, при каждом добавлении создаётся новый торрент. Чтобы начать докачку новой серии, пользователям необходимо сделать следующее:
- Остановить скачивание.
- Удалить старый торрент у себя из клиента (старые серии удалять не надо).
- Скачать новый торрент и запустить его у себя в клиенте вместо старого, при этом указать клиенту путь в старую папку куда и должно происходить скачивание новых серий.
Ваш клиент при этом должен произвести хеширование (проверку) старой папки (если не производит сам - помогите ему сделать это), и будет докачивать только те серии которых у вас ещё нет. Старые серии при этом не удаляются, а продолжают раздаваться!
Если вы уже удалили старые серии, то предотвратить повторную закачку старых серий можно, отжав галочку в соответствующих местах при запуске нового торрента. По возможности, желательно не удалять старые серии как можно дольше, чтобы релизер не столько продолжал раздавать старые серии, а смог сконцентрироваться на новых.
Код: Выделить всё
Общее
Уникальный идентификатор                 : 227852114311443837297706933373158993292 (0xAB6AB8926F9A98D084B40A825226AD8C)
Полное имя                               : D:\Торрент\Fizruk.2017.S04.WEB-DL(720p).OlLanDGroup\Fizruk.2017.S04.E01.WEB-DL(720p).OlLanDGroup.mkv
Формат                                   : Matroska
Версия формата                           : Version 2
Размер файла                             : 652 Мбайт
Продолжительность                        : 24 м. 3 с.
Общий поток                              : 3787 Кбит/сек
Дата кодирования                         : UTC 2017-10-10 16:21:09
Программа кодирования                    : mkvmerge v7.8.0 ('River Man') 32bit built on Apr  3 2015 12:11:22
Библиотека кодирования                   : libebml v1.3.1 + libmatroska v1.4.2
Видео
Идентификатор                            : 1
Формат                                   : AVC
Формат/Информация                        : Advanced Video Codec
Профиль формата                          : [email protected]
Параметр CABAC формата                   : Да
Параметр ReFrames формата                : 1 кадр
Параметр GOP формата                     : M=1, N=12
Идентификатор кодека                     : V_MPEG4/ISO/AVC
Продолжительность                        : 24 м. 3 с.
Битрейт                                  : 3519 Кбит/сек
Ширина                                   : 1280 пикселей
Высота                                   : 720 пикселей
Соотношение сторон                       : 16:9
Режим частоты кадров                     : Постоянный
Частота кадров                           : 25,000 кадров/сек
Стандарт вещания                         : Component
Цветовое пространство                    : YUV
Субдискретизация насыщенности            : 4:2:0
Битовая глубина                          : 8 бит
Тип развёртки                            : Прогрессивная
Бит/(Пиксели*Кадры)                      : 0.153
Размер потока                            : 606 Мбайт (93%)
Default                                  : Да
Forced                                   : Нет
Цветовой диапазон                        : Limited
Аудио
Идентификатор                            : 2
Формат                                   : AC-3
Формат/Информация                        : Audio Coding 3
Расширение режима                        : CM (complete main)
Параметр Endianness формата              : Big
Идентификатор кодека                     : A_AC3
Продолжительность                        : 24 м. 3 с.
Вид битрейта                             : Постоянный
Битрейт                                  : 192 Кбит/сек
Каналы                                   : 2 канала
Расположение каналов                     : Front: L R
Частота                                  : 48,0 КГц
Частота кадров                           : 31,250 кадров/сек (1536 spf)
Битовая глубина                          : 16 бит
Метод сжатия                             : С потерями
Размер потока                            : 33,0 Мбайт (5%)
Default                                  : Да
Forced                                   : Нет

Сравнение с http://rutracker.org/forum/viewtopic.php?t=5465032 http://screenshotcomparison.com/comparison/120441/picture:0



Сообщения из этой темы [5 шт.] были выделены в отдельную тему REXNN52 [id: 11162675] (0)
Сударыня
   
Торрент: Зарегистрирован [01 фев 2018, 18:16] Ольга / Физрук Скачать торрент Магнет ссылка
Скачать торрент
[ Размер 49.35 КБ / Просмотров 12 ]
Статус:
Проверен
 
.torrent скачан: 0 раз
Размер: 9.53 ГБ (10 231 447 691 байт)
   Стать Автором раздачи
 
 
Цитата

Вернуться в Ольга / Физрук

Кто сейчас на конференции

Сейчас эту тему просматривают: нет зарегистрированных пользователей и гости: 1