Физрук / Сезон: 3 / Серии: 1-21 из 21 (Сергей Сенцов) [2016, Комедия, SATRip]

 Статистика раздачи 
Размер: 6.25 ГБ   |  Зарегистрирован: 01 фев 2018, 18:16   |   .torrent скачан: 0 раз
Сидеров: 0  [ 0 байт/сек ]     Личеров: 0  [ 0 байт/сек ]  
  
Аватара пользователя
 
Раздал: 0 байт
Скачал: 0 байт
Ратио: Inf.
Сообщения: 184681
Стаж: 7 лет 9 месяцев 27 дней
Откуда: Rossiya

Физрук

Год выпуска: 2016
Производство: Россия, Good Story Media по заказу ТНТ
Жанр: Комедия
Продолжительность: 00:24:00
Субтитры: нет
Режиссёр: Сергей Сенцов
В ролях: Дмитрий Нагиев, Александр Гордон (II), Полина Гренц, Анастасия Панина, Владимир Сычёв, Даниил Вахрушев, Андрей Крыжний, Артур Сопельник, Оксана Сидоренко, Карина Мишулина
Описание: Во время финального судебного заседания с Олега Евгеньевича Фомина снимают все обвинения. Оказавшись на свободе, он видит, что жизнь его друзей и близких сильно изменилась. У Психа кризис среднего возраста, Таня строит новые отношения, а Саша Мамаева была вынуждена отдать бизнес отца Лене и теперь едва сводит концы с концами. Когда Фома узнает, что в истории с бизнесом Мамая снова замешана Лена, он понимает, что его долг — вернуть все обратно Саше как законной наследнице. Но сделать это будет очень непросто: на стороне Лены деньги, связи и армия головорезов, зато в арсенале Фомы надежная команда и новая невероятная схема, в которой замешаны школа, Татьяна Александровна и даже президент России. Фома собирает вместе всю старую банду, а также призывает на помощь своего нового друга Мишу по кличке Буддист. Он не просто хороший знакомый Фомы, а его наставник и духовник. Продвигаясь к цели, Фома будет отвечать на многочисленные вопросы Буддиста, главные из которых «Кто я?» и «Каково мое место в мире?». Все вместе они отправятся на поиски истины, счастья и справедливости. Вместо трех у них на всех всего одно заветное желание, и компаньоны уверены, что оно обязательно сбудется.

Все раздачи сериала
Качество: SATRip
Формат: AVI
Видео кодек: XviD
Аудио кодек: MP3
Видео: 720x400 (16:9), 25.000 fps, XviD 67, 1463 Kbps, 0.203 bit/pixel
Аудио: 48.0 kHz, MP3, 2 ch, 192 Kbps
General
Complete name : Downloads\Физрук. Сезон 3. 2016 SATRip
Format : AVI
Format/Info : Audio Video Interleave
File size : 282 MiB
Duration : 23mn 42s
Overall bit rate : 1 665 Kbps
Writing application : VirtualDubMod 1.5.10.3 (build 2550/release)
Writing library : VirtualDubMod build 2550/release
Video #0
ID : 0
Format : MPEG-4 Visual
Format profile : Advanced Simple@L5
Format settings, BVOP : 1
Format settings, QPel : No
Format settings, GMC : No warppoints
Format settings, Matrix : Default (H.263)
Codec ID : XVID
Codec ID/Hint : XviD
Duration : 23mn 42s
Bit rate : 1 463 Kbps
Width : 720 pixels
Height : 400 pixels
Display aspect ratio : 16:9
Frame rate : 25.000 fps
Color space : YUV
Chroma subsampling : 4:2:0
Bit depth : 8 bits
Scan type : Progressive
Compression mode : Lossy
Bits/(Pixel*Frame) : 0.203
Stream size : 248 MiB (88%)
Writing library : XviD 67
Audio #1
ID : 1
Format : MPEG Audio
Format version : Version 1
Format profile : Layer 3
Mode : Joint stereo
Mode extension : MS Stereo
Codec ID : 55
Codec ID/Hint : MP3
Duration : 23mn 42s
Bit rate mode : Constant
Bit rate : 192 Kbps
Channel(s) : 2 channels
Sampling rate : 48.0 KHz
Compression mode : Lossy
Stream size : 32.5 MiB (12%)
Alignment : Split accross interleaves
Interleave, duration : 40 ms (1.00 video frame)
Interleave, preload duration : 500 ms
Writing library : LAME3.99.5
(1) остановить скачивание,
(2) удалить старый торрент у себя из клиента (старые серии удалять не надо),
(3) скачать новый торрент и запустить его у себя в клиенте вместо старого, при этом указать клиенту путь в старую папку куда и должно происходить скачивание новых серий.
Ваш клиент при этом должен произвести хеширование (проверку) старой папки (если не производит сам - помогите ему сделать это), и будет докачивать только те серии которых у вас ещё нет. Старые серии при этом не удаляются, а продолжают раздаваться!
Eсли вы уже удалили старые серии, то предотвратить повторную закачку старых серий можно, отжав галочку в соответсвующих местах при запуске нового торрента. По возможности, желательно не удалять старые серии как можно дольше чтобы релизёр не столько продолжал раздавать старые серии, а смог сконцентрироваться на новых
.
Не забывайте говорить Спасибо. Не уходите с раздачи!   
Торрент: Зарегистрирован [01 фев 2018, 18:16] Для скачивания .torrent
необходима регистрация
Или скачать с помощью
MediaGet
Статус:
Проверен
 
.torrent скачан: 0 раз
Хэш: 506fb3a270065e1e933a7e114327e2b3e823c323
Размер: 6.25 ГБ (6 715 162 624 байт)
   Стать Автором раздачи
   
Цитата

Вернуться в Ольга / Физрук

Кто сейчас на конференции

Сейчас эту тему просматривают: нет зарегистрированных пользователей и гости: 1