Физрук / Сезон: 1 / Серии: 1-20 из 20 (Фёдор Стуков, Сергей Сенцов.) [2014, комедия, WEBRip]

 Статистика раздачи 
Размер: 3.81 ГБ   |  Зарегистрирован: 01 фев 2018, 18:16   |   .torrent скачан: 0 раз
Сидеров: 0  [ 0 байт/сек ]     Личеров: 0  [ 0 байт/сек ]  
  
Аватара пользователя
 
Раздал: 0 байт
Скачал: 0 байт
Ратио: Inf.
Сообщения: 182312
Стаж: 7 лет 7 месяцев 26 дней
Откуда: Rossiya

Физрук

Год выпуска: 2014
Производство: Good Story Media
Жанр: комедия
Продолжительность: ~00:25:00 серия
Субтитры: нет
Режиссёр: Фёдор Стуков, Сергей Сенцов.
В ролях: Дмитрий Нагиев, Александр Гордон, Полина Гренц, Анастасия Панина, Владимир Сычев, Даниил Вахрушев, Андрей Крыжний, Артур Сопельник, Оксана Сидоренко, Карина Мишулина.
Описание: Это история о столкновении двух времен: «лихих» 90-х и «стабильных» десятых. Главный герой Фома всю жизнь был «правой рукой» влиятельного человека с полукриминальным прошлым. Когда «хозяин» выгнал его на пенсию, Фома решил любым способом вернуться обратно. Сначала казалось, что все будет просто: подобраться к сыну бывшего босса, прогнуться, напомнить о себе и вернуться в дело. Но план Фомы рушится в первый же день. В школе ему приходится задержаться надолго.
КиноПоиск | Семпл | Все раздачи сериала
Качество: WEBRip [ WEBRip/720p/]
Формат: AVI
Видео кодек: XviD
Аудио кодек: MP3
Видео: 624x352 (1.77:1), 25 fps, XviD build 73 ~923 kbps avg, 0.17 bit/pixel
Аудио: 48 kHz, MPEG Layer 3, 2 ch, ~128.00 kbps avg
General
Complete name : E:\Физрук.(Logan1995)\серия 1.avi
Format : AVI
Format/Info : Audio Video Interleave
File size : 195 Мбайт
Duration : 25 м.
Overall bit rate : 1062 Кбит/сек
Writing application : VirtualDubMod 1.5.10.3 | www.virtualdub-fr.org || (build 2550/release)
Writing library : VirtualDubMod build 2550/release
Video
ID : 0
Format : MPEG-4 Visual
Format profile : Advanced Simple@L5
Format settings, BVOP : 1
Format settings, QPel : Нет
Format settings, GMC : Без точки перехода
Format settings, Matrix : Выборочная
Codec ID : XVID
Codec ID/Hint : XviD
Duration : 25 м.
Bit rate : 924 Кбит/сек
Width : 624 пикс.
Height : 352 пикс.
Display aspect ratio : 16:9
Frame rate : 25,000 кадр/сек
Color space : YUV
Chroma subsampling : 4:2:0
Bit depth : 8 бит
Scan type : Прогрессивная
Compression mode : С потерями
Bits/(Pixel*Frame) : 0.168
Stream size : 170 Мбайт (87%)
Writing library : XviD 73
Audio
ID : 1
Format : MPEG Audio
Format version : Version 1
Format profile : Layer 3
Codec ID : 55
Codec ID/Hint : MP3
Duration : 25 м.
Bit rate mode : Постоянный
Bit rate : 128 Кбит/сек
Channel(s) : 2 канала(ов)
Sampling rate : 48,0 КГц
Compression mode : С потерями
Stream size : 23,5 Мбайт (12%)
Alignment : Соединение по промежуткам
Interleave, duration : 40 мс. (1,00 видеокадр)
Interleave, preload duration : 504 ms
Writing library : LAME3.99r
Encoding settings : -m s -V 4 -q 2 -lowpass 17 -b 128
Не забывайте говорить Спасибо. Не уходите с раздачи!   
Торрент: Зарегистрирован [01 фев 2018, 18:16] Для скачивания .torrent
необходима регистрация
Или скачать с помощью
MediaGet
Статус:
Проверен
 
.torrent скачан: 0 раз
Размер: 3.81 ГБ (4 089 425 920 байт)
   Стать Автором раздачи
   
Цитата

Вернуться в Ольга / Физрук

Кто сейчас на конференции

Сейчас эту тему просматривают: нет зарегистрированных пользователей и гости: 1