Временно беременна / Labor Pains [мелодрама, комедия, 2009] BDRip 1080p, Dub

 Статистика раздачи 
Размер: 6.76 ГБ   |  Зарегистрирован: 30 май 2017, 19:53   |   .torrent скачан: 218 раз
Сидеров: 39  [ 0 байт/сек ]     Личеров: 11  [ 0 байт/сек ]  
  
Аватара пользователя
Автор темы
Раздал: 1.21 ТБ
Скачал: 3.51 ГБ
Ратио: 351.851
Сообщения: 13764
Стаж: 10 месяцев

Русское название: Временно беременна
Оригинальное название: Labor Pains
Год выхода: 2009
Режиссер: Лара Шапиро
В ролях: Линдси Лохан, Люк Кирби, Крис Парнелл, Аарон Ю, Бриджит Мендлер, Трэйси Эллис Росс, Кевин Ковейс, Бонни Соммервиль, Шерил Хайнс, Крид Брэтто
Роли дублировали: Татьяна Шитова, Илья Бледный, Алексей Колган, Елена Чебатуркина, Полина Щербаков
Страна производства: США
Продолжительность: 90 мин. / 01:30
Композитор: Эндрю Холландер
Монтаж: Энн МакКейб
Художник: Дэниэл Брэдфорд, Рёмель Хоукинс, Брайан Каш
Оператор: Дэн Столофф
Продюсер: Лати Гробман, Ави Лернер, Селин Рэттрэй
Слоган: 'Some stories just keep on growing'
Сценарий: Стэйси Крамер, Лара Шапиро
Сборы в России: $684 129
Ре-релиз в РФ: 9 июля 2009
Релиз DVD: 30 июля 2009
Премьера в РФ: 9 июля 2009
Премьера в мире: 19 июня 2009
Жанр: мелодрама, комедия
Описание: Занимая должность референта в престижном издательстве сложно оставаться невозмутимой, когда среди прочих нелепейших поручений ежедневное мытье собачки шефа. Естественное желание 'спустить пары' выливается для героини Tea в увольнение. Однако быстрота реакции и подкованность в дискриминационных законах позволяет Tea не только сохранить должность, но и сделать карьеру. Героиня заявляет, что она беременна. Теперь рабочие будни перемешиваются с мнимыми схватками, а 'невинная' ложь создает все больше курьезных ситуаций. Статус беременной приносит свои плоды и привносит что-то новое в смысл жизни Tea. Но, симулируя беременность, придется симулировать и роды. Ограничится ли авантюра 9-месячным сроком?
Рейтинг MPAA: PG-13 - Детям до 13 лет просмотр не желателен
Рейтинг IMDB:
Рейтинг Kinopoisk:
Продолжительность: 01:28:55
Перевод: Профессиональный (дублированный) Пифагор

Кодек: x264
Качество: BDRip 1080p
Видео: 1920x1036, 10000 kbps, 23,976 fps
Аудио #1: AC-3, 6 ch, 448 kbps (Rus) - Dub Пифагор
Аудио #2: AC-3, 6 ch, 448 kbps (Eng)
Субтитры: Английские
Код: Выделить всё
x264 [info]: frame I:995 Avg QP:15.39 size:221887
x264 [info]: frame P:28390 Avg QP:17.67 size: 89720
x264 [info]: frame B:98548 Avg QP:19.74 size: 39532
x264 [info]: consecutive B-frames: 1.4% 2.0% 7.6% 36.2% 12.4% 34.3% 2.5% 2.7% 0.2% 0.1% 0.1% 0.4% 0.1%

Общее
Уникальный идентификатор : 171043865490814855171683693463623232427 (0x80ADD9A90471E74CA0E4E07AC8B0EBAB)
Полное имя : Временно беременна (Labor Pains) 2009 BDRip 1080p.mkv
Формат : Matroska
Версия формата : Version 2
Размер файла : 6,76 Гбайт
Продолжительность : 1 ч. 28 м.
Общий поток : 10,9 Мбит/сек
Дата кодирования : UTC 2017-05-29 15:33:37
Программа кодирования : mkvmerge v4.0.0 ('The Stars were mine') сборка от Jun 6 2010 16:18:42
Библиотека кодирования : libebml v1.0.0 + libmatroska v1.0.0

Видео
Идентификатор : 1
Формат : AVC
Формат/Информация : Advanced Video Codec
Профиль формата : [email protected]
Параметр CABAC формата : Да
Параметр ReFrames формата : 4 кадра
Идентификатор кодека : V_MPEG4/ISO/AVC
Продолжительность : 1 ч. 28 м.
Битрейт : 10000 Кбит/сек
Ширина : 1920 пикселей
Высота : 1036 пикселей
Соотношение сторон : 1,85:1
Режим частоты кадров : Постоянный
Частота кадров : 23,976 (24000/1001) кадра/сек
Цветовое пространство : YUV
Субдискретизация насыщенности : 4:2:0
Битовая глубина : 8 бит
Тип развёртки : Прогрессивная
Бит/(Пиксели*Кадры) : 0.210
Размер потока : 6,07 Гбайт (90%)
Библиотека кодирования : x264 core 146 r2538 121396c
Настройки программы : cabac=1 / ref=4 / deblock=1:-3:-3 / analyse=0x3:0x133 / me=umh / subme=11 / psy=1 / psy_rd=1.00:0.00 / mixed_ref=1 / me_range=32 / chroma_me=1 / trellis=2 / 8x8dct=1 / cqm=0 / deadzone=21,11 / fast_pskip=0 / chroma_qp_offset=-2 / threads=12 / lookahead_threads=2 / sliced_threads=0 / nr=0 / decimate=0 / interlaced=0 / bluray_compat=0 / constrained_intra=0 / bframes=12 / b_pyramid=2 / b_adapt=2 / b_bias=0 / direct=3 / weightb=1 / open_gop=0 / weightp=2 / keyint=240 / keyint_min=23 / scenecut=40 / intra_refresh=0 / rc=2pass / mbtree=0 / bitrate=10000 / ratetol=1.0 / qcomp=0.60 / qpmin=0 / qpmax=69 / qpstep=4 / cplxblur=20.0 / qblur=0.5 / ip_ratio=1.40 / pb_ratio=1.30 / aq=1:0.80
Язык : English
Default : Нет
Forced : Нет

Аудио #1
Идентификатор : 2
Формат : AC-3
Формат/Информация : Audio Coding 3
Расширение режима : CM (complete main)
Параметр Endianness формата : Big
Идентификатор кодека : A_AC3
Продолжительность : 1 ч. 28 м.
Вид битрейта : Постоянный
Битрейт : 448 Кбит/сек
Каналы : 6 каналов
Расположение каналов : Front: L C R, Side: L R, LFE
Частота : 48,0 КГц
Частота кадров : 31,250 кадров/сек (1536 spf)
Метод сжатия : С потерями
Размер потока : 285 Мбайт (4%)
Заголовок : Dub Пифагор
Язык : Russian
Default : Нет
Forced : Нет

Аудио #2
Идентификатор : 3
Формат : AC-3
Формат/Информация : Audio Coding 3
Расширение режима : CM (complete main)
Параметр Endianness формата : Big
Идентификатор кодека : A_AC3
Продолжительность : 1 ч. 28 м.
Вид битрейта : Постоянный
Битрейт : 448 Кбит/сек
Каналы : 6 каналов
Расположение каналов : Front: L C R, Side: L R, LFE
Частота : 48,0 КГц
Частота кадров : 31,250 кадров/сек (1536 spf)
Метод сжатия : С потерями
Размер потока : 285 Мбайт (4%)
Язык : English
Default : Нет
Forced : Нет

Текст
Идентификатор : 4
Формат : UTF-8
Идентификатор кодека : S_TEXT/UTF8
Идентификатор кодека/Информация : UTF-8 Plain Text
Язык : English
Default : Нет
Forced : Нет

   
Торрент: Зарегистрирован [30 май 2017, 19:53] Скачать торрент Магнет ссылка
Скачать торрент
[ Размер 35.6 КБ / Просмотров 15 ]
Статус:
Проверен
 
.torrent скачан: 218 раз
Размер: 6.76 ГБ (7 262 709 236 байт)
   
 
 
Цитата
  • Похожие торренты
    Ответы
    Просмотры
    Последнее сообщение

Вернуться в Зарубежное кино (HD Video)

Кто сейчас на конференции

Сейчас эту тему просматривают: нет зарегистрированных пользователей и гости: 1