(Instrumental, Contemporary, Soundtrack) [CD] Brian Bennett - Shadowing John Barry - 2015 (feat.Peter Frampton, John Parricelli, Ray Russell, Mark Knopfler, Warren Bennett, Mark Griffiths, The Shadows), FLAC (image+.cue), lossless

 Статистика раздачи 
Размер: 330.19 МБ   |  Зарегистрирован: 27 апр 2017, 21:55   |   .torrent скачан: 21 раз
Сидеров: 24  [ 0 байт/сек ]     Личеров: 10  [ 0 байт/сек ]  
  
Аватара пользователя
Автор темы
Раздал: 1.16 ТБ
Скачал: 3.44 ГБ
Ратио: 344.709
Сообщения: 4823
Стаж: 8 месяцев 26 дней

Оригинальное название: Shadowing John Barry
Дата выхода: 2015
Страна: UK
Производитель Диска - Лейбл: Dramatico Entertainment
Жанр: Instrumental, Contemporary, Soundtrack
Исполнитель: Brian Bennett
Формат аудио: FLAC
Битрэйт: Lossless
Тип рипа: image+.cue
Продолжительность: 00:46:56
Источник (релизер): Alex Fal
Трэклист: 01. Thunderball 02:57
02. Out Of Africa 03:33
03. You Only Live Twice 03:12
04. The Appointment 03:17
05. The Man With The Golden Gun 02:43
06. Somewhere In Time 03:14
07. On Her Majesty's Secret Service 03:57
08. The Ipcress File 03:16
09. We Have All The Time In The World 03:27
10. Romance For Guitar & Orchestra 03:37
11. Midnight Cowboy 02:41
12. Goldfinger 03:58
13. The Beyondness Of Things 03:35
14. Born Free 03:23

Код: Выделить всё
Exact Audio Copy V1.1 from 23. June 2015

EAC extraction logfile from 10. May 2016, 12:47

Brian Bennett / Shadowing John Barry

Used drive  : ASUS    SDRW-08D1S-U   Adapter: 1  ID: 1

Read mode               : Secure
Utilize accurate stream : Yes
Defeat audio cache      : Yes
Make use of C2 pointers : No

Read offset correction                      : 667
Overread into Lead-In and Lead-Out          : No
Fill up missing offset samples with silence : Yes
Delete leading and trailing silent blocks   : No
Null samples used in CRC calculations       : Yes
Used interface                              : Native Win32 interface for Win NT & 2000

Used output format              : User Defined Encoder
Selected bitrate                : 128 kBit/s
Quality                         : High
Add ID3 tag                     : No
Command line compressor         : C:\Program Files (x86)\Exact Audio Copy\Flac\flac.exe
Additional command line options : -V -8 -T "Date=%year%" -T "Genre=%genre%" %source%

TOC of the extracted CD

     Track |   Start  |  Length  | Start sector | End sector
    ---------------------------------------------------------
        1  |  0:00.00 |  2:57.08 |         0    |    13282
        2  |  2:57.08 |  3:33.42 |     13283    |    29299
        3  |  6:30.50 |  3:12.18 |     29300    |    43717
        4  |  9:42.68 |  3:17.70 |     43718    |    58562
        5  | 13:00.63 |  2:43.05 |     58563    |    70792
        6  | 15:43.68 |  3:14.00 |     70793    |    85342
        7  | 18:57.68 |  3:57.37 |     85343    |   103154
        8  | 22:55.30 |  3:16.39 |    103155    |   117893
        9  | 26:11.69 |  3:27.28 |    117894    |   133446
       10  | 29:39.22 |  3:37.65 |    133447    |   149786
       11  | 33:17.12 |  2:41.30 |    149787    |   161891
       12  | 35:58.42 |  3:58.13 |    161892    |   179754
       13  | 39:56.55 |  3:35.51 |    179755    |   195930
       14  | 43:32.31 |  3:23.34 |    195931    |   211189

Range status and errors

Selected range

     Filename C:\Users\Олег\Desktop\Brian Bennett - Shadowing John Barry 2015\Brian Bennett - Shadowing John Barry.wav

     Peak level 97.9 %
     Extraction speed 3.8 X
     Range quality 100.0 %
     Test CRC E7D0DAD1
     Copy CRC E7D0DAD1
     Copy OK

No errors occurred

AccurateRip summary

Track  1  not present in database
Track  2  not present in database
Track  3  not present in database
Track  4  not present in database
Track  5  not present in database
Track  6  not present in database
Track  7  not present in database
Track  8  not present in database
Track  9  not present in database
Track 10  not present in database
Track 11  not present in database
Track 12  not present in database
Track 13  not present in database
Track 14  not present in database

None of the tracks are present in the AccurateRip database

End of status report

---- CUETools DB Plugin V2.1.6

[CTDB TOCID: 35GQHaBLM3sI.iwTe_v_XnSrV04-] found
Submit result: already submitted
Track | CTDB Status
  1   | (3/3) Accurately ripped
  2   | (3/3) Accurately ripped
  3   | (3/3) Accurately ripped
  4   | (3/3) Accurately ripped
  5   | (3/3) Accurately ripped
  6   | (3/3) Accurately ripped
  7   | (3/3) Accurately ripped
  8   | (3/3) Accurately ripped
  9   | (3/3) Accurately ripped
 10   | (3/3) Accurately ripped
 11   | (3/3) Accurately ripped
 12   | (3/3) Accurately ripped
 13   | (3/3) Accurately ripped
 14   | (3/3) Accurately ripped

==== Log checksum 7A47CD7C3C5C9B1581AEF6C5405EC04C22F82902862C9FB1644DFCEC0849589B ====

Код: Выделить всё
REM GENRE Soundtrack
REM DATE 2015
REM DISCID DE0AFF0E
REM COMMENT "ExactAudioCopy v1.1"
PERFORMER "Brian Bennett"
TITLE "Shadowing John Barry"
FILE "Brian Bennett - Shadowing John Barry.flac" WAVE
  TRACK 01 AUDIO
    TITLE "Thunderball"
    PERFORMER "Brian Bennett"
    INDEX 01 00:00:00
  TRACK 02 AUDIO
    TITLE "Out Of Africa"
    PERFORMER "Brian Bennett"
    INDEX 00 02:55:49
    INDEX 01 02:57:08
  TRACK 03 AUDIO
    TITLE "You Only Live Twice"
    PERFORMER "Brian Bennett"
    INDEX 00 06:29:60
    INDEX 01 06:30:50
  TRACK 04 AUDIO
    TITLE "The Appointment"
    PERFORMER "Brian Bennett"
    INDEX 00 09:41:56
    INDEX 01 09:42:68
  TRACK 05 AUDIO
    TITLE "The Man With The Golden Gun"
    PERFORMER "Brian Bennett"
    INDEX 00 12:59:67
    INDEX 01 13:00:63
  TRACK 06 AUDIO
    TITLE "Somewhere In Time"
    PERFORMER "Brian Bennett"
    INDEX 00 15:42:49
    INDEX 01 15:43:68
  TRACK 07 AUDIO
    TITLE "On Her Majesty's Secret Service"
    PERFORMER "Brian Bennett"
    INDEX 00 18:57:08
    INDEX 01 18:57:68
  TRACK 08 AUDIO
    TITLE "The Ipcress File"
    PERFORMER "Brian Bennett"
    INDEX 00 22:54:00
    INDEX 01 22:55:30
  TRACK 09 AUDIO
    TITLE "We Have All The Time In The World"
    PERFORMER "Brian Bennett"
    INDEX 00 26:11:12
    INDEX 01 26:11:69
  TRACK 10 AUDIO
    TITLE "Romance For Guitar & Orchestra"
    PERFORMER "Brian Bennett"
    INDEX 00 29:37:70
    INDEX 01 29:39:22
  TRACK 11 AUDIO
    TITLE "Midnight Cowboy"
    PERFORMER "Brian Bennett"
    INDEX 00 33:16:42
    INDEX 01 33:17:12
  TRACK 12 AUDIO
    TITLE "Goldfinger"
    PERFORMER "Brian Bennett"
    INDEX 00 35:57:02
    INDEX 01 35:58:42
  TRACK 13 AUDIO
    TITLE "The Beyondness Of Things"
    PERFORMER "Brian Bennett"
    INDEX 00 39:55:52
    INDEX 01 39:56:55
  TRACK 14 AUDIO
    TITLE "Born Free"
    PERFORMER "Brian Bennett"
    INDEX 00 43:31:28
    INDEX 01 43:32:31
   
Торрент: Зарегистрирован [27 апр 2017, 21:55] Soundtracks Скачать торрент Магнет ссылка
Скачать торрент
[ Размер 14.04 КБ / Просмотров 36 ]
Статус:
Проверен
 
.torrent скачан: 21 раз
Размер: 330.19 МБ (346 230 070 байт)
   
 
 
Цитата

Вернуться в Soundtracks

Кто сейчас на конференции

Сейчас эту тему просматривают: нет зарегистрированных пользователей и гости: 1