(New Age) Medwyn Goodall - The Round Table - 1996, APE (image+.cue), lossless

 Статистика раздачи 
Размер: 276.34 МБ   |  Зарегистрирован: 07 июл 2016, 22:40   |   .torrent скачан: 2 раз
Сидеров: 344  [ 0 байт/сек ]     Личеров: 39  [ 0 байт/сек ]  
  
Аватара пользователя
Автор темы
Раздал: 504.07 ГБ
Скачал: 3.8 ГБ
Ратио: 132.656
Сообщения: 261
Стаж: 1 год 3 месяца 14 дней

Оригинальное название: The Round Table
Страна: UK
Производитель Диска - Лейбл: Oreade Musik
Жанр: New-Age, Meditative
Дата выхода: 1996
Формат аудио: APE
Исполнитель: Medwyn Goodall
Тип рипа: image+.cue
Битрэйт: Lossless
Продолжительность: 00:44:30
1. The Path Of Merlin (6:26)
2. Pendragon Legacy (7:36)
3. Mordred (8:08)
4. Dozmary Pool (6:14)
5. Avalon (6:30)
6. Arthur's Round Table (10:00)

Код: Выделить всё
EAC extraction logfile from 17 April 2010, 14:56 for CD
Medwyn Goodall / The Round Table

Drive: HL-DT-STDVD-ROM GDR8164B Adapter: 1 ID: 1
Read mode: C2, accurate stream, disable cache mode
Combination of read and write offset correction: 0
Read Lead-In and Lead-Out: No

Used output format: Internal WAV Routines
                     44.100 Hz; 16 Bit; stereo

Other options:
    Fill up missing offset samples with silence: Yes
    Remove trailing silent blocks: No
    Win NT & 2000 Native Win32 interface for

Range status and errors
Selected range
     File F:\Music\Medwyn Goodall\CDImage.wav

     Peak level of 99.2%
     Range quality 100.0%
     CRC 1DAC36D2
     Copy success

No error occurred

End of status report

Код: Выделить всё
PERFORMER "Medwyn Goodall"
TITLE "The Round Table"
FILE "CDImage.ape" WAVE
  TRACK 01 AUDIO
    TITLE "The Path Of Merlin"
    PERFORMER "Medwyn Goodall"
    INDEX 01 00:00:00
  TRACK 02 AUDIO
    TITLE "Pendragon Legacy"
    PERFORMER "Medwyn Goodall"
    INDEX 00 06:17:20
    INDEX 01 06:21:65
  TRACK 03 AUDIO
    TITLE "Mordred"
    PERFORMER "Medwyn Goodall"
    INDEX 00 13:48:57
    INDEX 01 13:53:25
  TRACK 04 AUDIO
    TITLE "Dozmary Pool"
    PERFORMER "Medwyn Goodall"
    INDEX 00 21:51:70
    INDEX 01 21:56:35
  TRACK 05 AUDIO
    TITLE "Avalon"
    PERFORMER "Medwyn Goodall"
    INDEX 00 28:00:62
    INDEX 01 28:06:25
  TRACK 06 AUDIO
    TITLE "Arthur's Round Table"
    PERFORMER "Medwyn Goodall"
    INDEX 00 34:25:32
    INDEX 01 34:31:42

Официальный сайт

Издатель (лейбл): Oreade Musik
Номер по каталогу: OMM 5451-2
   
Торрент: Зарегистрирован [07 июл 2016, 22:40] Electronic Скачать торрент Магнет ссылка
Скачать торрент
[ Размер 11.75 КБ / Просмотров 107 ]
Статус:
Проверен
 
.torrent скачан: 2 раз
Размер: 276.34 МБ (289 765 097 байт)
   
 
 
Цитата
  • Похожие торренты
    Ответы
    Просмотры
    Последнее сообщение

Вернуться в Electronic

Кто сейчас на конференции

Сейчас эту тему просматривают: нет зарегистрированных пользователей и гости: 1