(Heavy/Power Metal) [CD] Cage - Ancient Evil - 2015, FLAC (image+.cue), lossless

 Статистика раздачи 
Размер: 592.39 МБ   |  Зарегистрирован: 10 ноя 2015, 01:51   |   .torrent скачан: 0 раз
Сидеров: 6  [ 0 байт/сек ]     Личеров: 3  [ 0 байт/сек ]  
  
Аватара пользователя
Администратор
Администратор
Автор темы
Раздал: 24.47 ТБ
Скачал: 388.83 ГБ
Ратио: 145.334
Сообщения: 5357
Стаж: 6 лет 8 месяцев 18 дней
Откуда: Lithuania

Cage / Ancient Evil



Оригинальное название: Cage / Ancient Evil
Страна: Germany
Производитель Диска - Лейбл: SMG
Жанр: Heavy/Power Metal
Дата выхода: 2015
Формат аудио: FLAC
Тип рипа: image+.cue
Битрэйт: lossless
Продолжительность: 75:39
Трэклист: 01. There Were Others 00:45
02. Ancient Evil 05:16
03. Behind The Walls Of Newgate 04:34
04. The Procedure 04:46
05. The Appetite 05:20
06. Cassandra 04:17
07. Blinded By Rage 05:46
08. Tell Me Everything 00:54
09. The Expedition 05:25
10. Beholder 05:35
11. I Have Awakened 01:43
12. Across The Sea Of Madness 05:48
13. To Save Love 01:52
14. Christ Protect Me 00:58
15. Sinister Six 04:22
16. Symphony Of Sin 06:03
17. The Antidote 05:00
18. Tomorrow Never Came 06:25
19. It Can’t Be 00:42

Код: Выделить всё
Exact Audio Copy V1.1 from 23. June 2015

EAC extraction logfile from 9. November 2015, 15:56

Cage / Ancient Evil

Used drive  : HP      DVD Writer 1170d   Adapter: 1  ID: 1

Read mode               : Secure
Utilize accurate stream : Yes
Defeat audio cache      : Yes
Make use of C2 pointers : No

Read offset correction                      : 6
Overread into Lead-In and Lead-Out          : No
Fill up missing offset samples with silence : Yes
Delete leading and trailing silent blocks   : No
Null samples used in CRC calculations       : Yes
Used interface                              : Native Win32 interface for Win NT & 2000

Used output format              : User Defined Encoder
Selected bitrate                : 1024 kBit/s
Quality                         : High
Add ID3 tag                     : No
Command line compressor         : C:\Program Files (x86)\Exact Audio Copy\FLAC\FLAC.EXE
Additional command line options : -V -8 -T "Date=%year%" -T "Genre=%genre%" -T"COMMENT=Ripped by Ungern666" -8 -V %source%

TOC of the extracted CD

     Track |   Start  |  Length  | Start sector | End sector
    ---------------------------------------------------------
        1  |  0:00.00 |  0:47.59 |         0    |     3583
        2  |  0:47.59 |  5:15.63 |      3584    |    27271
        3  |  6:03.47 |  4:35.09 |     27272    |    47905
        4  | 10:38.56 |  4:45.20 |     47906    |    69300
        5  | 15:24.01 |  5:22.20 |     69301    |    93470
        6  | 20:46.21 |  4:15.59 |     93471    |   112654
        7  | 25:02.05 |  5:47.02 |    112655    |   138681
        8  | 30:49.07 |  0:55.24 |    138682    |   142830
        9  | 31:44.31 |  5:22.69 |    142831    |   167049
       10  | 37:07.25 |  5:35.23 |    167050    |   192197
       11  | 42:42.48 |  1:44.29 |    192198    |   200026
       12  | 44:27.02 |  5:46.16 |    200027    |   225992
       13  | 50:13.18 |  1:54.39 |    225993    |   234581
       14  | 52:07.57 |  0:59.35 |    234582    |   239041
       15  | 53:07.17 |  4:23.35 |    239042    |   258801
       16  | 57:30.52 |  6:01.08 |    258802    |   285884
       17  | 63:31.60 |  5:01.58 |    285885    |   308517
       18  | 68:33.43 |  6:24.19 |    308518    |   337336
       19  | 74:57.62 |  0:41.44 |    337337    |   340455

Range status and errors

Selected range

     Filename C:\EAC\Ungern666\Cage - Ancient Evil.wav

     Peak level 100.0 %
     Extraction speed 6.5 X
     Range quality 99.9 %
     Test CRC 46B87BD9
     Copy CRC 46B87BD9
     Copy OK

No errors occurred

AccurateRip summary

Track  1  not present in database
Track  2  not present in database
Track  3  not present in database
Track  4  not present in database
Track  5  not present in database
Track  6  not present in database
Track  7  not present in database
Track  8  not present in database
Track  9  not present in database
Track 10  not present in database
Track 11  not present in database
Track 12  not present in database
Track 13  not present in database
Track 14  not present in database
Track 15  not present in database
Track 16  not present in database
Track 17  not present in database
Track 18  not present in database
Track 19  not present in database

None of the tracks are present in the AccurateRip database

End of status report

---- CUETools DB Plugin V2.1.6

[CTDB TOCID: AqSKOH7TyN65.wsv8.wp2YndPkY-] found
Submit result: already submitted
Track | CTDB Status
  1   | (2/2) Accurately ripped
  2   | (2/2) Accurately ripped
  3   | (2/2) Accurately ripped
  4   | (2/2) Accurately ripped
  5   | (2/2) Accurately ripped
  6   | (2/2) Accurately ripped
  7   | (2/2) Accurately ripped
  8   | (2/2) Accurately ripped
  9   | (2/2) Accurately ripped
 10   | (2/2) Accurately ripped
 11   | (2/2) Accurately ripped
 12   | (2/2) Accurately ripped
 13   | (2/2) Accurately ripped
 14   | (2/2) Accurately ripped
 15   | (2/2) Accurately ripped
 16   | (2/2) Accurately ripped
 17   | (2/2) Accurately ripped
 18   | (2/2) Accurately ripped
 19   | (2/2) Accurately ripped

==== Log checksum E5E3286D0A0B4C2256F63E6BDF8C45C909359DB2F59BC3903C42720C2EA1EB79 ====
   
Торрент: Зарегистрирован [10 ноя 2015, 01:51] Metal Скачать торрент Магнет ссылка
Скачать торрент
[ Размер 12.9 КБ / Просмотров 364 ]
Статус:
Проверен
 
.torrent скачан: 0 раз
Размер: 592.39 МБ (621 162 407 байт)
   
 
 
Цитата
  • Похожие торренты
    Ответы
    Просмотры
    Последнее сообщение

Вернуться в Metal

Кто сейчас на конференции

Сейчас эту тему просматривают: нет зарегистрированных пользователей и гости: 1