(Heavy Metal) [24/96][3LP] Iron Maiden - The Book Of Souls - 2015; FLAC (tracks)

 Статистика раздачи 
Размер: 2.05 ГБ   |  Зарегистрирован: 05 сен 2015, 18:32   |   .torrent скачан: 12662 раз
Сидеров: 131  [ 0 байт/сек ]     Личеров: 9  [ 0 байт/сек ]  
  
Аватара пользователя
Главный редактор
Главный редактор
Автор темы
Раздал: 10.09 ТБ
Скачал: 1.76 ТБ
Ратио: 6.147
Сообщения: 3344
Стаж: 6 лет 3 месяца 29 дней
Откуда: Санкт-Петербург

Iron Maiden - The Book Of Souls

3LP


Оригинальное название: The Book Of Souls
Дата выхода: 2015
Страна: EU
Жанр: Heavy Metal
Производитель Диска - Лейбл: Parlophone · 0825646089208
Продолжительность: 1:32:30
Аудио кодек: FLAC
Тип рипа: tracks
Формат записи: 24/96
Формат раздачи: 24/96
Качество состояния Винила: Mint
Устройство воспроизведения: Technics 1210 , Origin Live OL1, Ortofon 2m Blue
Предварительный усилитель: Rothwell Simplex
Программа-оцифровщик: Izotope 3 for everything else.
Описание: The Book of Souls (рус. Книга душ) — шестнадцатый студийный альбом британской хеви-метал-группы Iron Maiden, релиз которого назначен на 4 сентября 2015 года. Это первый двойной альбом группы, состоящий из 11 композиций. Его длительность составляет 92 минуты 11 секунд, что делает его самым продолжительным в истории группы. Ранее рекорд принадлежал предыдущему альбому, The Final Frontier (2010), длительность которого составляет 76 минут 35 секунд.
Планы группы по поводу шестнадцатого студийного альбома стали впервые известны от Брюса Дикинсона в сентябре 2013 года, когда тот сказал, что альбом выйдет в 2015 году. Из-за лечения Дикинсона от раковой опухоли выпуск альбома был перенесён с 18 июня на 4 сентября. Выпущенный на лейбле Parlophone, это первый альбом группы, который не будет издан на EMI, поскольку данная компания была приобретена Warner Music Group в 2013 году. В США альбом будет выпущен лейблами Sanctuary Copyrightsruen/BMGruen.

Обложку альбома разработал Марк Уилкинсон (англ.)русск., который ранее сотрудничал с Iron Maiden на таких релизах, как Live at Donington (ремастированная версия 1998 года) и Best of the 'B' Sidesruen (сборник 2002 года), а также разрабытывал обложки для синглов группы «The Wicker Manruen» и «Out of the Silent Planetruen». Альбом был записан в конце лета 2014 года в студии Guillaume Tell Studios, в Париже. Продюсером стал Кевин Ширли. В начале 2015 года в The Book of Souls внесли последние штрихи. В той же студии в 2000-х был записан альбом Brave New World, о чём Дикинсон сказал: «С этой студией у нас всех связаны особые воспоминания. Мы с наслаждением ощутили, что та волшебная энергетика жива и здорова!»" . Басист группы Стив Харрис утверждает, что много композиций были созданы и сразу же записаны прямо в студии, то есть «наполнены жизнью».

92-минутный The Book of Souls — самый длинный альбом Iron Maiden, а также первый двойной. По поводу длины записи Дикинсон сообщил следующее: «Все согласились с тем, что каждый трек является настолько неотъемлемой частью целого, что если нужно делать двойной альбом, то пусть будет двойной!». Последняя 18-минутная песня, «Empire of the Clouds», стала самой длинной композицией группы (прежде таковой считалась «Rime of the Ancient Mariner» с альбома 1984 года Powerslave). Также The Book of Souls стал первым альбомом со времён Powerslave, в котором есть композиции, написанные Дикинсоном в одиночку («Empire of the Clouds» и «If Eternity Should Fail»). По словам Харриса, альбом не является концептуальным, хотя там встречаются отсылки к понятию души.

Тур в поддержку альбома должен пройти в начале 2016 года, поскольку предполагается, что к тому времени Дикинсон может полностью оправиться от рака

Трэклист: 01. If Eternity Should Fail (8:30)
02. Speed Of Light (5:03)
03. The Great Unknown (6:38)
04. The Red And The Black (13:34)
05. When The River Runs Deep (5:53)
06. The Book Of Souls (10:29)
07. Death Or Glory (5:14)
08. Shadows Of The Valley (7:35)
09. Tears Of A Clown (5:00)
10. The Man Of Sorrows (6:29)
11. Empire Of The Clouds (18:05)


Код: Выделить всё
foobar2000 1.2 / Dynamic Range Meter 1.1.1
log date: 2015-09-05 11:54:02
--------------------------------------------------------------------------------
Analyzed: Iron Maiden / The Book Of Souls
--------------------------------------------------------------------------------
DR Peak RMS Duration Track
--------------------------------------------------------------------------------
DR10 -1.78 dB -13.89 dB 8:30 01-If Eternity Should Fail
DR12 -0.31 dB -13.47 dB 5:03 02-Speed Of Light
DR11 -1.79 dB -14.69 dB 6:38 03-The Great Unknown
DR11 -0.65 dB -13.27 dB 13:34 04-The Red And The Black
DR11 -0.66 dB -13.28 dB 5:53 05-When The River Runs Deep
DR10 -1.82 dB -13.53 dB 10:29 06-The Book Of Souls
DR11 -0.42 dB -12.36 dB 5:14 07-Death Or Glory
DR10 -1.50 dB -12.93 dB 7:35 08-Shadows Of The Valley
DR10 -1.24 dB -12.99 dB 5:00 09-Tears Of A Clown
DR11 -0.72 dB -14.06 dB 6:29 10-The Man Of Sorrows
DR12 -0.24 dB -14.01 dB 18:05 11-Empire Of The Clouds
--------------------------------------------------------------------------------
Number of tracks: 11
Official DR value: DR11
Samplerate: 96000 Hz
Channels: 2
Bits per sample: 24
Bitrate: 2837 kbps
Codec: FLAC
================================================================================

phpBB [media]
   
Торрент: Зарегистрирован [05 сен 2015, 18:32] Vinyl-Rip и Hand-Made Скачать торрент Магнет ссылка
Скачать торрент
[ Размер 23.16 КБ / Просмотров 223 ]
Статус:
Проверен
 
.torrent скачан: 12662 раз
Размер: 2.05 ГБ (2 196 003 394 байт)
   
 
 
Цитата
  • Похожие торренты
    Ответы
    Просмотры
    Последнее сообщение

Вернуться в Vinyl-Rip и Hand-Made

Кто сейчас на конференции

Сейчас эту тему просматривают: нет зарегистрированных пользователей и гости: 1