U.D.O. (UDO) - Navy Metal Night [2015, Heavy/Power Metal, Blu-ray]

 Статистика раздачи 
Размер: 21.68 ГБ   |  Зарегистрирован: 25 авг 2015, 01:06   |   .torrent скачан: 51 раз
Сидеров: 11  [ 0 байт/сек ]     Личеров: 11  [ 0 байт/сек ]  
  
Аватара пользователя
Главный редактор
Главный редактор
Автор темы
Раздал: 10.09 ТБ
Скачал: 1.76 ТБ
Ратио: 6.147
Сообщения: 3344
Стаж: 6 лет 5 месяцев 2 дня
Откуда: Санкт-Петербург

U.D.O.
Navy Metal Night


Оригинальное название: Navy Metal Night
Дата выхода: 2015
Жанр: Heavy / Power Metal
Исполнитель: U.D.O. (UDO)
Страна: Германия
Лейбл: AFM Records
Номер по каталогу: AFM 525-0
Продолжительность: 01:40:28
Описание: Navy Metal Night (рус. Морская ночь метала) — концертный альбом группы U.D.O., записанный с симфоническим оркестром в 2014 году и выпущенный в 2015 году.
Альбом был записан в феврале 2014 года в ходе грандиозного шоу группы U.D.O., которая на этот раз выступала в сопровождении симфонического оркестра Marinemusikkorps Nordsee военно-морских сил Германии;
музыканты оркестра в ходе шоу были одеты в полную морскую военную форму.
По словам Удо Диркшнайдера:
« Я был просто поражён всем этим событием; это похоже на мечту, которая исполнилась. Это на самом деле больше, чем можно выразить словами. Этот DVD будет чем-то особенным для меня,
определённо пиком моей карьеры....»

Альбом реализовывался AFM Records в комплекте из трёх дисков: один из них DVD или Blue-ray и двойной компакт-диск. Синглы не выпускались. Группа выступит с тем же концертом на фестивале Wacken Open Air,
только уже в сопровождении немецкого федерального оркестра вооружённых сил. Открывающая альбом композиция Das Boot - версия саундтрека Auslaufen к фильму Подводная лодка (1981).
Песня Dancing with an Angel исполнена, как и на оригинале, дуэтом с Доро Пеш. Во вступлении перед Trainride in Russia (Poezd po rossii) звучит сначала сыгранная на акустической гитаре песня
«Постой, паровоз, не стучите колёса…», а затем Калинка.
Качество: Blu-Ray (1080i)
Контейнер: BDMV
Формат аудио: AC3, DTS
Формат видео: H.264
Видео: MPEG-4 AVC Video / 20998 kbps / 1980x1080i / 25 fps / 16:9 / High Profile 4.1
Аудио 1: LPCM Audio / 2.0 / 48 kHz / 2304 kbps / 24-bit
Аудио 2: DTS-HD Master Audio / 5.1 / 48 kHz / 4975 kbps / 24-bit (DTS Core: 5.1 / 48 kHz / 1509 kbps / 24-bit / DN -1dB)
Аудио 3: Dolby Digital Audio / 5.1 / 48 kHz / 640 kbps / DN -1dB
01. Das Boot
02. Future Land
03. Independence Day
04. Animal Instinct
05. The Hall of the Mountain King
06. Heart of Gold
07. Man and Machine
08. Dancing with an Angel (feat. Doro Pesch)
09. Faceless World
10. Ride
11. Days of Hope and Glory
12. Cut Me Out
13. Trainride in Russia (Poezd Po Rossii)
14. Stillness of Time
15. King of Mean
16. Book of Faith
17. Animal House

Код: Выделить всё
Disc Title:     U.D.O. - Navy Metal Night (2015) [Blu-ray]
Disc Size:      23 277 624 142 bytes
Protection:     AACS
BD-Java:        Yes
Extras:         50Hz Content
BDInfo:         0.5.8
Notes:
BDINFO HOME:
  Cinema Squid
    http://www.cinemasquid.com/blu-ray/tools/bdinfo
INCLUDES FORUMS REPORT FOR:
  AVS Forum Blu-ray Audio and Video Specifications Thread
    http://www.avsforum.com/avs-vb/showthread.php?t=1155731
********************
PLAYLIST: 01002.MPLS
********************
<--- BEGIN FORUMS PASTE --->

Код:
Total   Video
Title                                                           Codec   Length  Movie Size      Disc Size       Bitrate Bitrate Main Audio Track                          Secondary Audio Track
-----                                                           ------  ------- --------------  --------------  ------- ------- ------------------                        ---------------------
01002.MPLS                                                      AVC     1:40:28 23 064 445 824  23 277 624 142  30,61   21,00   LPCM 2.0 2304Kbps (48kHz/24-bit)          DTS-HD Master 5.1 4974Kbps (48kHz/24-bit)
Код:
DISC INFO:
Disc Title:     U.D.O. - Navy Metal Night (2015) [Blu-ray]
Disc Size:      23 277 624 142 bytes
Protection:     AACS
BD-Java:        Yes
Extras:         50Hz Content
BDInfo:         0.5.8
PLAYLIST REPORT:
Name:                   01002.MPLS
Length:                 1:40:28.439 (h:m:s.ms)
Size:                   23 064 445 824 bytes
Total Bitrate:          30,61 Mbps
VIDEO:
Codec                   Bitrate             Description
-----                   -------             -----------
MPEG-4 AVC Video        20998 kbps          1080i / 25 fps / 16:9 / High Profile 4.1
AUDIO:
Codec                           Language        Bitrate         Description
-----                           --------        -------         -----------
LPCM Audio                      Undetermined    2304 kbps       2.0 / 48 kHz / 2304 kbps / 24-bit
DTS-HD Master Audio             Undetermined    4974 kbps       5.1 / 48 kHz / 4974 kbps / 24-bit (DTS Core: 5.1 / 48 kHz / 1509 kbps / 24-bit / DN -1dB)
Dolby Digital Audio             Undetermined    640 kbps        5.1 / 48 kHz / 640 kbps / DN -1dB
FILES:
Name            Time In         Length          Size            Total Bitrate
----            -------         ------          ----            -------------
00002.M2TS      0:00:00.000     1:40:28.040     23 064 437 184  30 609
00003.M2TS      1:40:28.040     0:00:00.400     8 640           157
CHAPTERS:
Number          Time In         Length          Avg Video Rate  Max 1-Sec Rate  Max 1-Sec Time  Max 5-Sec Rate  Max 5-Sec Time  Max 10Sec Rate  Max 10Sec Time  Avg Frame Size  Max Frame Size  Max Frame Time
------          -------         ------          --------------  --------------  --------------  --------------  --------------  --------------  --------------  --------------  --------------  --------------
1               0:00:00.000     0:05:43.800     15 279 kbps     35 052 kbps     00:04:41.480    29 688 kbps     00:05:06.240    25 929 kbps     00:05:01.520    76 385 bytes    472 028 bytes   00:03:03.239
2               0:05:43.800     0:07:09.200     20 285 kbps     33 834 kbps     00:06:43.880    28 800 kbps     00:09:05.240    27 638 kbps     00:09:00.080    101 425 bytes   553 185 bytes   00:10:19.959
3               0:12:53.000     0:05:47.840     20 687 kbps     35 333 kbps     00:16:38.560    28 023 kbps     00:16:37.560    25 808 kbps     00:15:02.840    103 437 bytes   511 672 bytes   00:13:27.360
4               0:18:40.840     0:04:35.279     21 299 kbps     39 651 kbps     00:20:16.520    32 643 kbps     00:21:42.520    30 666 kbps     00:21:42.440    106 497 bytes   459 458 bytes   00:22:21.600
5               0:23:16.120     0:03:37.319     17 622 kbps     32 669 kbps     00:26:18.440    28 315 kbps     00:26:42.320    27 816 kbps     00:26:41.480    88 111 bytes    417 069 bytes   00:26:27.240
6               0:26:53.440     0:05:29.400     21 917 kbps     40 387 kbps     00:27:27.640    33 537 kbps     00:27:27.920    32 228 kbps     00:27:24.160    109 587 bytes   541 903 bytes   00:30:55.520
7               0:32:22.840     0:06:33.199     22 023 kbps     37 743 kbps     00:35:09.840    32 017 kbps     00:34:32.160    30 230 kbps     00:34:27.120    110 114 bytes   562 130 bytes   00:38:03.240
8               0:38:56.040     0:05:09.559     18 596 kbps     32 296 kbps     00:38:56.360    29 041 kbps     00:38:56.040    26 826 kbps     00:38:56.280    92 981 bytes    377 364 bytes   00:39:41.440
9               0:44:05.600     0:06:53.920     21 863 kbps     39 049 kbps     00:49:24.720    33 492 kbps     00:49:20.800    30 063 kbps     00:48:42.240    109 316 bytes   457 655 bytes   00:46:02.360
10              0:50:59.520     0:04:10.320     20 558 kbps     35 509 kbps     00:52:30.680    30 421 kbps     00:52:59.600    28 273 kbps     00:52:57.320    102 790 bytes   551 174 bytes   00:52:32.120
11              0:55:09.840     0:05:20.159     20 928 kbps     39 249 kbps     00:58:08.040    31 058 kbps     00:57:59.240    28 481 kbps     00:57:59.480    104 638 bytes   594 746 bytes   00:55:11.720
12              1:00:30.000     0:05:19.960     20 223 kbps     43 347 kbps     01:03:12.560    28 651 kbps     01:05:29.840    27 211 kbps     01:03:03.960    101 116 bytes   491 958 bytes   01:03:12.600
13              1:05:49.960     0:07:47.560     22 403 kbps     38 985 kbps     01:11:26.720    33 085 kbps     01:11:24.000    32 033 kbps     01:11:19.440    112 015 bytes   513 493 bytes   01:06:29.600
14              1:13:37.520     0:06:35.879     22 593 kbps     39 391 kbps     01:18:24.760    34 500 kbps     01:18:23.000    30 236 kbps     01:18:21.040    112 967 bytes   499 720 bytes   01:14:29.520
15              1:20:13.400     0:07:06.280     21 320 kbps     40 745 kbps     01:24:34.840    35 169 kbps     01:24:33.640    32 117 kbps     01:24:31.120    106 598 bytes   561 239 bytes   01:23:44.120
16              1:27:19.680     0:06:27.079     21 390 kbps     41 299 kbps     01:31:39.560    32 008 kbps     01:31:45.880    30 093 kbps     01:31:42.720    106 951 bytes   484 409 bytes   01:32:38.560
17              1:33:46.760     0:06:41.679     24 773 kbps     43 022 kbps     01:34:09.280    32 349 kbps     01:35:30.280    29 948 kbps     01:38:33.360    123 901 bytes   548 738 bytes   01:38:19.120
STREAM DIAGNOSTICS:
File            PID             Type            Codec           Language                Seconds                 Bitrate                 Bytes           Packets
----            ---             ----            -----           --------                --------------          --------------          -------------   -----
00002.M2TS      4113 (0x1011)   0x1B            AVC                                     6027,960                21 000                  15 823 456 535  86 087 517
00002.M2TS      4352 (0x1100)   0x80            LPCM            und (Undetermined)      6027,960                2 308                   1 739 361 536   9 636 352
00002.M2TS      4353 (0x1101)   0x86            DTS-HD MA       und (Undetermined)      6027,960                4 975                   3 748 599 380   21 312 434
00002.M2TS      4354 (0x1102)   0x81            AC3             und (Undetermined)      6027,960                639                     481 817 415     2 823 148
00003.M2TS      4113 (0x1011)   0x1B            AVC                                     0,320                   151                     6 030           41

<---- END FORUMS PASTE ---->
QUICK SUMMARY:
Disc Title: U.D.O. - Navy Metal Night (2015) [Blu-ray]
Disc Size: 23 277 624 142 bytes
Protection: AACS
BD-Java: Yes
Playlist: 01002.MPLS
Size: 23 064 445 824 bytes
Length: 1:40:28.439
Total Bitrate: 30,61 Mbps
Video: MPEG-4 AVC Video / 20998 kbps / 1080i / 25 fps / 16:9 / High Profile 4.1
Audio: Undetermined / LPCM Audio / 2.0 / 48 kHz / 2304 kbps / 24-bit
Audio: Undetermined / DTS-HD Master Audio / 5.1 / 48 kHz / 4974 kbps / 24-bit (DTS Core: 5.1 / 48 kHz / 1509 kbps / 24-bit / DN -1dB)
Audio: Undetermined / Dolby Digital Audio / 5.1 / 48 kHz / 640 kbps / DN -1dB
********************
PLAYLIST: 00002.MPLS
********************
<--- BEGIN FORUMS PASTE --->

Код:
Total   Video
Title                                                           Codec   Length  Movie Size      Disc Size       Bitrate Bitrate Main Audio Track                          Secondary Audio Track
-----                                                           ------  ------- --------------  --------------  ------- ------- ------------------                        ---------------------
00002.MPLS                                                      AVC     1:40:28 23 064 437 184  23 277 624 142  30,61   21,00   LPCM 2.0 2304Kbps (48kHz/24-bit)          DTS-HD Master 5.1 4975Kbps (48kHz/24-bit)
Код:
DISC INFO:
Disc Title:     U.D.O. - Navy Metal Night (2015) [Blu-ray]
Disc Size:      23 277 624 142 bytes
Protection:     AACS
BD-Java:        Yes
Extras:         50Hz Content
BDInfo:         0.5.8
PLAYLIST REPORT:
Name:                   00002.MPLS
Length:                 1:40:28.040 (h:m:s.ms)
Size:                   23 064 437 184 bytes
Total Bitrate:          30,61 Mbps
VIDEO:
Codec                   Bitrate             Description
-----                   -------             -----------
MPEG-4 AVC Video        21000 kbps          1080i / 25 fps / 16:9 / High Profile 4.1
AUDIO:
Codec                           Language        Bitrate         Description
-----                           --------        -------         -----------
LPCM Audio                      Undetermined    2304 kbps       2.0 / 48 kHz / 2304 kbps / 24-bit
DTS-HD Master Audio             Undetermined    4975 kbps       5.1 / 48 kHz / 4975 kbps / 24-bit (DTS Core: 5.1 / 48 kHz / 1509 kbps / 24-bit / DN -1dB)
Dolby Digital Audio             Undetermined    640 kbps        5.1 / 48 kHz / 640 kbps / DN -1dB
FILES:
Name            Time In         Length          Size            Total Bitrate
----            -------         ------          ----            -------------
00002.M2TS      0:00:00.000     1:40:28.040     23 064 437 184  30 609
CHAPTERS:
Number          Time In         Length          Avg Video Rate  Max 1-Sec Rate  Max 1-Sec Time  Max 5-Sec Rate  Max 5-Sec Time  Max 10Sec Rate  Max 10Sec Time  Avg Frame Size  Max Frame Size  Max Frame Time
------          -------         ------          --------------  --------------  --------------  --------------  --------------  --------------  --------------  --------------  --------------  --------------
1               0:00:00.000     1:40:28.040     21 000 kbps     43 347 kbps     01:03:12.560    35 169 kbps     01:24:33.640    32 228 kbps     00:27:24.160    105 000 bytes   594 746 bytes   00:55:11.720
STREAM DIAGNOSTICS:
File            PID             Type            Codec           Language                Seconds                 Bitrate                 Bytes           Packets
----            ---             ----            -----           --------                --------------          --------------          -------------   -----
00002.M2TS      4113 (0x1011)   0x1B            AVC                                     6027,960                21 000                  15 823 456 535  86 087 517
00002.M2TS      4352 (0x1100)   0x80            LPCM            und (Undetermined)      6027,960                2 308                   1 739 361 536   9 636 352
00002.M2TS      4353 (0x1101)   0x86            DTS-HD MA       und (Undetermined)      6027,960                4 975                   3 748 599 380   21 312 434
00002.M2TS      4354 (0x1102)   0x81            AC3             und (Undetermined)      6027,960                639                     481 817 415     2 823 148

<---- END FORUMS PASTE ---->
QUICK SUMMARY:
Disc Title: U.D.O. - Navy Metal Night (2015) [Blu-ray]
Disc Size: 23 277 624 142 bytes
Protection: AACS
BD-Java: Yes
Playlist: 00002.MPLS
Size: 23 064 437 184 bytes
Length: 1:40:28.040
Total Bitrate: 30,61 Mbps
Video: MPEG-4 AVC Video / 21000 kbps / 1080i / 25 fps / 16:9 / High Profile 4.1
Audio: Undetermined / LPCM Audio / 2.0 / 48 kHz / 2304 kbps / 24-bit
Audio: Undetermined / DTS-HD Master Audio / 5.1 / 48 kHz / 4975 kbps / 24-bit (DTS Core: 5.1 / 48 kHz / 1509 kbps / 24-bit / DN -1dB)
Audio: Undetermined / Dolby Digital Audio / 5.1 / 48 kHz / 640 kbps / DN -1dB
********************
PLAYLIST: 00001.MPLS
********************
<--- BEGIN FORUMS PASTE --->

Код:
Total   Video
Title                                                           Codec   Length  Movie Size      Disc Size       Bitrate Bitrate Main Audio Track                          Secondary Audio Track
-----                                                           ------  ------- --------------  --------------  ------- ------- ------------------                        ---------------------
00001.MPLS                                                      AVC     0:01:00 179 285 184     23 277 624 142  23,78   20,92   LPCM 2.0 1536Kbps (48kHz/16-bit)
Код:
DISC INFO:
Disc Title:     U.D.O. - Navy Metal Night (2015) [Blu-ray]
Disc Size:      23 277 624 142 bytes
Protection:     AACS
BD-Java:        Yes
Extras:         50Hz Content
BDInfo:         0.5.8
PLAYLIST REPORT:
Name:                   00001.MPLS
Length:                 0:01:00.320 (h:m:s.ms)
Size:                   179 285 184 bytes
Total Bitrate:          23,78 Mbps
VIDEO:
Codec                   Bitrate             Description
-----                   -------             -----------
MPEG-4 AVC Video        20919 kbps          1080i / 25 fps / 16:9 / High Profile 4.1
AUDIO:
Codec                           Language        Bitrate         Description
-----                           --------        -------         -----------
LPCM Audio                      Undetermined    1536 kbps       2.0 / 48 kHz / 1536 kbps / 16-bit
FILES:
Name            Time In         Length          Size            Total Bitrate
----            -------         ------          ----            -------------
00001.M2TS      0:00:00.000     0:01:00.320     179 285 184     23 762
CHAPTERS:
Number          Time In         Length          Avg Video Rate  Max 1-Sec Rate  Max 1-Sec Time  Max 5-Sec Rate  Max 5-Sec Time  Max 10Sec Rate  Max 10Sec Time  Avg Frame Size  Max Frame Size  Max Frame Time
------          -------         ------          --------------  --------------  --------------  --------------  --------------  --------------  --------------  --------------  --------------  --------------
1               0:00:00.000     0:01:00.320     20 933 kbps     30 846 kbps     00:00:44.560    25 154 kbps     00:00:41.679    22 671 kbps     00:00:41.680    104 733 bytes   777 057 bytes   00:00:04.760
STREAM DIAGNOSTICS:
File            PID             Type            Codec           Language                Seconds                 Bitrate                 Bytes           Packets
----            ---             ----            -----           --------                --------------          --------------          -------------   -----
00001.M2TS      4113 (0x1011)   0x1B            AVC                                     60,240                  21 044                  158 463 633     862 124
00001.M2TS      4352 (0x1100)   0x80            LPCM            und (Undetermined)      60,240                  1 544                   11 629 696      72 384

<---- END FORUMS PASTE ---->
QUICK SUMMARY:
Disc Title: U.D.O. - Navy Metal Night (2015) [Blu-ray]
Disc Size: 23 277 624 142 bytes
Protection: AACS
BD-Java: Yes
Playlist: 00001.MPLS
Size: 179 285 184 bytes
Length: 0:01:00.320
Total Bitrate: 23,78 Mbps
Video: MPEG-4 AVC Video / 20919 kbps / 1080i / 25 fps / 16:9 / High Profile 4.1
Audio: Undetermined / LPCM Audio / 2.0 / 48 kHz / 1536 kbps / 16-bit
********************
PLAYLIST: 01001.MPLS
********************
<--- BEGIN FORUMS PASTE --->

Код:
Total   Video
Title                                                           Codec   Length  Movie Size      Disc Size       Bitrate Bitrate Main Audio Track                          Secondary Audio Track
-----                                                           ------  ------- --------------  --------------  ------- ------- ------------------                        ---------------------
01001.MPLS                                                      AVC     0:01:00 179 285 184     23 277 624 142  23,78   20,92   LPCM 2.0 1536Kbps (48kHz/16-bit)
Код:
DISC INFO:
Disc Title:     U.D.O. - Navy Metal Night (2015) [Blu-ray]
Disc Size:      23 277 624 142 bytes
Protection:     AACS
BD-Java:        Yes
Extras:         50Hz Content
BDInfo:         0.5.8
PLAYLIST REPORT:
Name:                   01001.MPLS
Length:                 0:01:00.320 (h:m:s.ms)
Size:                   179 285 184 bytes
Total Bitrate:          23,78 Mbps
VIDEO:
Codec                   Bitrate             Description
-----                   -------             -----------
MPEG-4 AVC Video        20919 kbps          1080i / 25 fps / 16:9 / High Profile 4.1
AUDIO:
Codec                           Language        Bitrate         Description
-----                           --------        -------         -----------
LPCM Audio                      Undetermined    1536 kbps       2.0 / 48 kHz / 1536 kbps / 16-bit
FILES:
Name            Time In         Length          Size            Total Bitrate
----            -------         ------          ----            -------------
00001.M2TS      0:00:00.000     0:01:00.320     179 285 184     23 762
CHAPTERS:
Number          Time In         Length          Avg Video Rate  Max 1-Sec Rate  Max 1-Sec Time  Max 5-Sec Rate  Max 5-Sec Time  Max 10Sec Rate  Max 10Sec Time  Avg Frame Size  Max Frame Size  Max Frame Time
------          -------         ------          --------------  --------------  --------------  --------------  --------------  --------------  --------------  --------------  --------------  --------------
1               0:00:00.000     0:01:00.320     20 933 kbps     30 846 kbps     00:00:44.560    25 154 kbps     00:00:41.679    22 671 kbps     00:00:41.680    104 733 bytes   777 057 bytes   00:00:04.760
STREAM DIAGNOSTICS:
File            PID             Type            Codec           Language                Seconds                 Bitrate                 Bytes           Packets
----            ---             ----            -----           --------                --------------          --------------          -------------   -----
00001.M2TS      4113 (0x1011)   0x1B            AVC                                     60,240                  21 044                  158 463 633     862 124
00001.M2TS      4352 (0x1100)   0x80            LPCM            und (Undetermined)      60,240                  1 544                   11 629 696      72 384

<---- END FORUMS PASTE ---->
QUICK SUMMARY:
Disc Title: U.D.O. - Navy Metal Night (2015) [Blu-ray]
Disc Size: 23 277 624 142 bytes
Protection: AACS
BD-Java: Yes
Playlist: 01001.MPLS
Size: 179 285 184 bytes
Length: 0:01:00.320
Total Bitrate: 23,78 Mbps
Video: MPEG-4 AVC Video / 20919 kbps / 1080i / 25 fps / 16:9 / High Profile 4.1
Audio: Undetermined / LPCM Audio / 2.0 / 48 kHz / 1536 kbps / 16-bit


phpBB [media]
   
Торрент: Зарегистрирован [25 авг 2015, 01:06] Скачать торрент Магнет ссылка
Скачать торрент
[ Размер 111.72 КБ / Просмотров 105 ]
Статус:
Проверен
 
.torrent скачан: 51 раз
Размер: 21.68 ГБ (23 277 624 142 байт)
   
 
 
Цитата
  • Похожие торренты
    Ответы
    Просмотры
    Последнее сообщение

Вернуться в Metal

Кто сейчас на конференции

Сейчас эту тему просматривают: нет зарегистрированных пользователей и гости: 1