Лицо со шрамом / Scarface (1983) BDRip 720p | A

 Статистика раздачи 
Размер: 7.76 ГБ   |  Зарегистрирован: 08 дек 2018, 14:02   |   .torrent скачан: 120 раз
Сидеров: 18  [ 0 байт/сек ]     Личеров: 5  [ 0 байт/сек ]  
  
Аватара пользователя
 
Раздал: 2.05 ГБ
Скачал: 15.48 ГБ
Ратио: 0.133
Сообщения: 29795
Стаж: 7 лет 9 месяцев 21 день
СообщениеДобавлено: 08 дек 2018, 14:02


Информация о фильме
Название: Лицо со шрамом
Оригинальное название: Scarface
Год выхода: 1983
Жанр: драма, криминал
Режиссер: Брайан Де Пальма
В ролях: Аль Пачино, Стивен Бауэр, Мишель Пфайффер, Мэри Элизабет Мастрантонио, Роберт Лоджа, Мириам Колон, Ф. Мюррэй Абрахам, Пол Шенар, Харрис Юлин, Анхель Салазар

О фильме:
Весной 1980 года был открыт порт Мэйриэл Харбор, и тысячи кубинских беженцев ринулись в Соединенные Штаты на поиски Американской Мечты. Один из них нашел ее на залитых солнцем улицах Майами. Богатство, власть и страсть превзошли даже самые невероятные его мечты. Его звали Тони Монтана. Мир запомнил его под другим именем — «Лицо со шрамом»…


Страна: США
Студия: Universal Pictures
Продолжительность: 02:50:10
Перевод: Авторский (одноголосый, закадровый) - Евгений Гаевский



Файл
Кодек: H264
Качество: BDRip 720p
Видео: 1280x544 23.976fps 6083 kb/s
Звук: ac3, 48000 Hz, 5.1, 448 kb/s
Субтитры: английские

Семпл

General
Unique ID : 196157963097694583406284037327503478276 (0x9392A6455E71341A939351D25DC3CE04)
Complete name : C:Users3uokcDesktopНовая папка (4)Лицо со шрамом.mkv
Format : Matroska
Format version : Version 4
File size : 7.76 GiB
Duration : 2 h 50 min
Overall bit rate : 6 531 kb/s
Encoded date : UTC 2018-11-25 15:03:24
Writing application : mkvmerge v28.2.0 ('The Awakening') 64-bit
Writing library : libebml v1.3.6 + libmatroska v1.4.9
Cover : Yes
Attachments : cover.jpg

Video
ID : 1
Format : AVC
Format/Info : Advanced Video Codec
Format profile : High@L4.1
Format settings : CABAC / 9 Ref Frames
Format settings, CABAC : Yes
Format settings, ReFrames : 9 frames
Codec ID : V_MPEG4/ISO/AVC
Duration : 2 h 50 min
Bit rate : 6 083 kb/s
Width : 1 280 pixels
Height : 544 pixels
Display aspect ratio : 2.35:1
Frame rate mode : Constant
Frame rate : 23.976 (24000/1001) FPS
Color space : YUV
Chroma subsampling : 4:2:0
Bit depth : 8 bits
Scan type : Progressive
Bits/(Pixel*Frame) : 0.364
Stream size : 7.22 GiB (93%)
Writing library : x264 core 125 r2208 d9d2288
Encoding settings : cabac=1 / ref=9 / deblock=1:-3:-3 / analyse=0x3:0x133 / me=umh / subme=11 / psy=1 / psy_rd=1.00:0.20 / mixed_ref=1 / me_range=32 / chroma_me=1 / trellis=2 / 8x8dct=1 / cqm=0 / deadzone=21,11 / fast_pskip=0 / chroma_qp_offset=-3 / threads=12 / lookahead_threads=2 / sliced_threads=0 / nr=0 / decimate=1 / interlaced=0 / bluray_compat=0 / constrained_intra=0 / bframes=12 / b_pyramid=2 / b_adapt=2 / b_bias=0 / direct=1 / weightb=1 / open_gop=0 / weightp=2 / keyint=250 / keyint_min=23 / scenecut=40 / intra_refresh=0 / rc=2pass / mbtree=0 / bitrate=6083 / ratetol=1.0 / qcomp=0.60 / qpmin=0 / qpmax=69 / qpstep=4 / cplxblur=20.0 / qblur=0.5 / ip_ratio=1.10 / pb_ratio=1.10 / aq=1:1.00
Language : English
Default : Yes
Forced : No

Audio
ID : 2
Format : AC-3
Format/Info : Audio Coding 3
Commercial name : Dolby Digital
Codec ID : A_AC3
Duration : 2 h 50 min
Bit rate mode : Constant
Bit rate : 448 kb/s
Channel(s) : 6 channels
Channel layout : L R C LFE Ls Rs
Sampling rate : 48.0 kHz
Frame rate : 31.250 FPS (1536 SPF)
Bit depth : 16 bits
Compression mode : Lossy
Stream size : 545 MiB (7%)
Language : Russian
Service kind : Complete Main
Default : Yes
Forced : Yes

Text
ID : 3
Format : UTF-8
Codec ID : S_TEXT/UTF8
Codec ID/Info : UTF-8 Plain Text
Duration : 2 h 42 min
Bit rate : 58 b/s
Count of elements : 2398
Stream size : 69.6 KiB (0%)
Language : English
Default : No
Forced : No

Menu
00:00:00.000 : en:A Politcal Prisoner (Main Titles)
00:08:11.574 : en:Freedom Town
00:10:55.237 : en:A Killing for a Green Card
00:13:40.194 : en:The Good Life
00:15:43.025 : en:A New Job
00:20:58.298 : en:Colombians and Chain Saws
00:29:51.289 : en:Mr. Lopez
00:33:09.362 : en:Elvira
00:34:42.538 : en:A Night in Babylon
00:43:13.173 : en:How to Pick Up Girls
00:46:46.053 : en:Going in Style
00:50:45.250 : en:The Prodigal Returns
00:59:02.705 : en:The Drug Lord
01:04:15.643 : en:Revenge
01:08:20.471 : en:Serious Money
01:12:57.539 : en:A Proposal
01:17:17.841 : en:Shakedown
01:23:33.133 : en:Brothery Love
01:28:48.323 : en:Two Guns for Tony
01:33:44.243 : en:A Hostile Takeover
01:43:31.496 : en:Prosperity
01:47:01.706 : en:Laundry Bills
01:51:48.410 : en:Philosophy in the Bathtub
01:57:19.991 : en:The Cost of Doing Business
02:02:43.105 : en:Problems and Solutions
02:07:08.203 : en:Dinner Conversation
02:13:58.405 : en:Prelude to Murder
02:16:04.447 : en:No Women and Children
02:21:46.080 : en:Severing Business Ties
02:24:22.779 : en:The End of the Honeymoon
02:30:37.862 : en:Preparing for War
02:35:14.888 : en:Gina's Offering
02:37:33.068 : en:Siege
02:40:04.303 : en:Montana's Last Stand
02:43:20.999 : en:End Titles
Перевод Евгения Гаевского доступен благодаря будулаюроманову! Работа со звуком Переводман.
Видеоряд доступен благодаря Leonardo and Scarabey.

Релиз от:
Не забывайте говорить Спасибо. Не уходите с раздачи!   
Торрент: Зарегистрирован [08 дек 2018, 14:02] Для скачивания .torrent
необходима регистрация
Или скачать с помощью
MediaGet
Статус:
Проверен
 
.torrent скачан: 120 раз
Хэш: a14d465a5ec8779e827837d6dc0316f7b6e69a5f
Размер: 7.76 ГБ (8 327 063 267 байт)
   Стать Автором раздачи
   
Цитата

Вернуться в Зарубежное кино (HD Video)

Кто сейчас на конференции

Сейчас эту тему просматривают: нет зарегистрированных пользователей и гости: 1