Чужой 3 / Alien 3 (1992) BDRip 1080p от Freeisland | Theatrical cut | D, P, A

 Статистика раздачи 
Размер: 10 ГБ   |  Зарегистрирован: 08 дек 2018, 15:07   |   .torrent скачан: 35 раз
Сидеров: 17  [ 0 байт/сек ]     Личеров: 1  [ 0 байт/сек ]  
  
Аватара пользователя
 
Раздал: 2.05 ГБ
Скачал: 15.48 ГБ
Ратио: 0.133
Сообщения: 29792
Стаж: 7 лет 9 месяцев 24 дня

Чужой 3 | Театральная версия

Alien 3 | Theatrical cut

«Снова началось...»




Год выпуска: 1992
Страна: США
Жанр: ужасы, фантастика, боевик, триллер
Продолжительность: 01:54:52
Перевод: Профессиональный (дублированный)
Субтитры: Russian (UTF-8), English (UTF-8)

Режиссер: Дэвид Финчер
Сценарий: Дэвид Гайлер, Уолтер Хилл, Ларри Фергусон, ...
Продюсер: Гордон Кэрролл, Дэвид Гайлер, Уолтер Хилл, ...
Оператор: Алекс Томсон
Композитор: Эллиот Голденталь
Художник: Норман Рейнольдс, Майкл Уайт, Фред Хоул, ...
Монтаж: Дэвид Краузер, Терри Роулингс

В ролях: Сигурни Уивер / Sigourney Weaver (Ellen Ripley, $ 4 000 000 ), Чарльз С. Даттон / Charles S. Dutton (Dillon), Чарльз Дэнс / Charles Dance (Clemens), Пол МакГанн / Paul McGann (Golic), Брайан Гловер / Brian Glover (Andrews), Ральф Браун / Ralph Brown (Aaron), Дэниэл Уэбб / Danny Webb (Morse), Кристофер Джон Филдс / Christopher John Fields (Rains), Холт МакКэллани / Holt McCallany (Junior), Лэнс Хенриксен / Lance Henriksen (Bishop II)

Описание: После бегства с планеты «Чужих» космический корабль Рипли терпит катастрофу вблизи так называемой планеты — тюрьмы, места, где отсиживают свой срок убийцы, насильники и прочие отбросы общества. Вместе с Рипли на эту планету попадает зародыш чужого, который и был причиной гибели корабля. Довольно быстро он превращается в гигантскую, зубастую тварь и начинает свое темное дело.Его жертвами становятся десятки безоружных заключенных. Кровь брызжет фонтаном, куски человеческого мяса разлетаются во все стороны. И кажется, что остановить эту машину смерти не сможет никто, никто кроме отважной, но увы не бессмертной девушки по имени Рипли.

Бюджет: $50 000 000
Сборы в США: $55 473 545
Сборы в мире: + $104 340 953 = $159 814 498
Зрители: США 13.4 млн, Франция 1.65 млн, Испания 1.33 млн
Премьера (мир): 22 мая 1992, ...
Релиз на DVD: 8 июля 2010, «Двадцатый Век Фокс СНГ», ...
Рейтинг MPAA: Лицам до 17 лет обязательно присутствие взрослого


Качество: BDRip 1080р
Формат: MKV
Видео кодек: AVC
Аудио кодеk: AC3
Видео: 1920x812 (2.35:1), 23.976 fps, AVC, 9 141 Kbps

Аудио #1: AC3, 448 Kbps, 48.0 KHz, 6 ch (Дубляж - CEE)
Аудио #2: AC3, 448 Kbps, 48.0 KHz, 6 ch (MVO - Двадцатый Век Фокс)
Аудио #3: AC3, 192 Kbps, 48.0 KHz, 2 ch (MVO - Премьер Видео)
Аудио #4: AC3, 448 Kbps, 48.0 KHz, 6 ch (AVO - Д.Пучков)
Аудио #5: AC3, 448 Kbps, 48.0 KHz, 6 ch (AVO - А.Гаврилов)
Аудио #6: AC3, 448 Kbps, 48.0 KHz, 6 ch (AVO - Ю.Живов)
Аудио #7: AC3, 448 Kbps, 48.0 KHz, 6 ch (AVO - Горчаков)
Аудио #8: AC3, 448 Kbps, 48.0 KHz, 6 ch (English)





General
Complete name : Chuzhoj.3.Theatrical.cut.1992.BDRip.1080p.mkv
Format : Matroska
File size : 10.00 GiB
Duration : 1h 54mn
Overall bit rate : 12.5 Mbps
Encoded date : UTC 2013-08-07 01:26:27
Writing application : mkvmerge v6.1.0 ('Old Devil') built on Mar 2 2013 14:32:37
Writing library : libebml v1.3.0 + libmatroska v1.4.0

Video
ID : 1
Format : AVC
Format/Info : Advanced Video Codec
Format profile : High@L4.1
Format settings, CABAC : Yes
Format settings, ReFrames : 4 frames
Muxing mode : Container profile=Unknown@4.1
Codec ID : V_MPEG4/ISO/AVC
Duration : 1h 54mn
Bit rate : 9 141 Kbps
Width : 1 920 pixels
Height : 812 pixels
Display aspect ratio : 2.35:1
Frame rate : 23.976 fps
Color space : YUV
Chroma subsampling : 4:2:0
Bit depth : 8 bits
Scan type : Progressive
Bits/(Pixel*Frame) : 0.245
Stream size : 7.13 GiB (71%)
Writing library : x264 core 135 r2345 f0c1c53
Encoding settings : cabac=1 / ref=4 / deblock=1:-1:-1 / analyse=0x3:0x133 / me=umh / subme=10 / psy=1 / psy_rd=1.00:0.00 / mixed_ref=1 / me_range=32 / chroma_me=1 / trellis=2 / 8x8dct=1 / cqm=0 / deadzone=21,11 / fast_pskip=0 / chroma_qp_offset=-2 / threads=6 / lookahead_threads=1 / sliced_threads=0 / nr=0 / decimate=1 / interlaced=0 / bluray_compat=0 / constrained_intra=0 / bframes=10 / b_pyramid=2 / b_adapt=2 / b_bias=0 / direct=3 / weightb=1 / open_gop=0 / weightp=2 / keyint=240 / keyint_min=24 / scenecut=40 / intra_refresh=0 / rc_lookahead=50 / rc=2pass / mbtree=0 / bitrate=9141 / ratetol=2.0 / qcomp=1.00 / qpmin=0 / qpmax=51 / qpstep=4 / cplxblur=20.0 / qblur=0.5 / vbv_maxrate=50000 / vbv_bufsize=62500 / nal_hrd=none / ip_ratio=1.40 / pb_ratio=1.30 / aq=1:1.00
Color primaries : BT.709-5, BT.1361, IEC 61966-2-4, SMPTE RP177
Transfer characteristics : BT.709-5, BT.1361
Matrix coefficients : BT.709-5, BT.1361, IEC 61966-2-4 709, SMPTE RP177

Audio #1
ID : 2
Format : AC-3
Format/Info : Audio Coding 3
Mode extension : CM (complete main)
Codec ID : A_AC3
Duration : 1h 54mn
Bit rate mode : Constant
Bit rate : 448 Kbps
Channel(s) : 6 channels
Channel positions : Front: L C R, Side: L R, LFE
Sampling rate : 48.0 KHz
Bit depth : 16 bits
Stream size : 368 MiB (4%)
Title : Дубляж - CEE
Language : Russian

Audio #2
ID : 3
Format : AC-3
Format/Info : Audio Coding 3
Mode extension : CM (complete main)
Codec ID : A_AC3
Duration : 1h 54mn
Bit rate mode : Constant
Bit rate : 448 Kbps
Channel(s) : 6 channels
Channel positions : Front: L C R, Side: L R, LFE
Sampling rate : 48.0 KHz
Bit depth : 16 bits
Stream size : 368 MiB (4%)
Title : MVO - Двадцатый Век Фокс
Language : Russian

Audio #3
ID : 4
Format : AC-3
Format/Info : Audio Coding 3
Mode extension : CM (complete main)
Codec ID : A_AC3
Duration : 1h 54mn
Bit rate mode : Constant
Bit rate : 192 Kbps
Channel(s) : 2 channels
Channel positions : Front: L R
Sampling rate : 48.0 KHz
Bit depth : 16 bits
Stream size : 158 MiB (2%)
Title : MVO - Премьер Видео Фильм
Language : Russian

Audio #4
ID : 5
Format : AC-3
Format/Info : Audio Coding 3
Mode extension : CM (complete main)
Codec ID : A_AC3
Duration : 1h 54mn
Bit rate mode : Constant
Bit rate : 448 Kbps
Channel(s) : 6 channels
Channel positions : Front: L C R, Side: L R, LFE
Sampling rate : 48.0 KHz
Bit depth : 16 bits
Stream size : 368 MiB (4%)
Title : AVO - Д.Пучков
Language : Russian

Audio #5
ID : 6
Format : AC-3
Format/Info : Audio Coding 3
Mode extension : CM (complete main)
Codec ID : A_AC3
Duration : 1h 54mn
Bit rate mode : Constant
Bit rate : 448 Kbps
Channel(s) : 6 channels
Channel positions : Front: L C R, Side: L R, LFE
Sampling rate : 48.0 KHz
Bit depth : 16 bits
Stream size : 368 MiB (4%)
Title : AVO - А.Гаврилов
Language : Russian

Audio #6
ID : 7
Format : AC-3
Format/Info : Audio Coding 3
Mode extension : CM (complete main)
Codec ID : A_AC3
Duration : 1h 54mn
Bit rate mode : Constant
Bit rate : 448 Kbps
Channel(s) : 6 channels
Channel positions : Front: L C R, Side: L R, LFE
Sampling rate : 48.0 KHz
Bit depth : 16 bits
Stream size : 368 MiB (4%)
Title : AVO - Ю.Живов
Language : Russian

Audio #7
ID : 8
Format : AC-3
Format/Info : Audio Coding 3
Mode extension : CM (complete main)
Codec ID : A_AC3
Duration : 1h 54mn
Bit rate mode : Constant
Bit rate : 448 Kbps
Channel(s) : 6 channels
Channel positions : Front: L C R, Side: L R, LFE
Sampling rate : 48.0 KHz
Bit depth : 16 bits
Stream size : 368 MiB (4%)
Title : AVO - Горчаков
Language : Russian

Audio #8
ID : 9
Format : AC-3
Format/Info : Audio Coding 3
Mode extension : CM (complete main)
Codec ID : A_AC3
Duration : 1h 54mn
Bit rate mode : Constant
Bit rate : 448 Kbps
Channel(s) : 6 channels
Channel positions : Front: L C R, Side: L R, LFE
Sampling rate : 48.0 KHz
Bit depth : 16 bits
Stream size : 368 MiB (4%)

Text #1
ID : 10
Format : UTF-8
Codec ID : S_TEXT/UTF8
Codec ID/Info : UTF-8 Plain Text
Language : Russian

Text #2
ID : 11
Format : UTF-8
Codec ID : S_TEXT/UTF8
Codec ID/Info : UTF-8 Plain Text

Menu
00:00:00.000 : en:Main Titles
00:03:42.972 : en:Crash Landing
00:04:45.994 : en:One Survivor?
00:07:34.745 : en:The Facts
00:09:33.948 : en:The Sleeper Awakens
00:11:48.290 : en:Inspecting the Ship
00:14:43.632 : en:A Possible Contagion
00:21:52.310 : en:A New Beginning
00:26:22.789 : en:New Temptation
00:30:19.984 : en:Diced
00:35:41.639 : en:The Flight Recorder
00:37:40.800 : en:High Priority
00:39:02.298 : en:A Re-Education
00:41:33.824 : en:A Candlelight Dinner
00:45:12.459 : en:Bishop Speaks
00:48:13.348 : en:Discussing the Dragon
00:51:31.504 : en:A Long Sad Story
00:55:57.520 : en:"It's Here"
00:58:25.501 : en:Who's in Charge?
01:01:04.202 : en:The Plan
01:05:00.479 : en:Wait for the Signal
01:09:35.754 : en:Under the Scanner
01:12:41.690 : en:A Classified Code
01:15:43.622 : en:In the Basement
01:19:03.613 : en:It Has to Die
01:22:14.721 : en:Plan B
01:27:15.104 : en:It Started
01:35:59.586 : en:Ripley & The Beast
01:38:42.416 : en:In the Mold
01:41:23.410 : en:Time for a Cold Shower
01:43:16.148 : en:Never Trust a Bishop
01:49:09.751 : en:End Titles
Не забывайте говорить Спасибо. Не уходите с раздачи!   
Торрент: Зарегистрирован [08 дек 2018, 15:07] Для скачивания .torrent
необходима регистрация
Или скачать с помощью
MediaGet
Статус:
Проверен
 
.torrent скачан: 35 раз
Хэш: f4f410182d7005d27d64aa304f95a947bd7dbedd
Размер: 10 ГБ (10 735 606 841 байт)
   Стать Автором раздачи
   
Цитата

Вернуться в Зарубежное кино (HD Video)

Кто сейчас на конференции

Сейчас эту тему просматривают: нет зарегистрированных пользователей и гости: 1