M. Geddes Gengras - Light Pipe (2018) Room40 [FLAC|Lossless|tracks+.cue] <Ambient, Experimental>

 Статистика раздачи 
Размер: 768.56 МБ   |  Зарегистрирован: 04 дек 2018, 12:40   |   .torrent скачан: 0 раз
Сидеров: 4  [ 0 байт/сек ]     Личеров: 0  [ 0 байт/сек ]  
  
Аватара пользователя
Я на сайте
 
Раздал: 3.61 ТБ
Скачал: 100.65 ГБ
Ратио: 36.766
Сообщения: 200856
Стаж: 1 год 8 месяцев 24 дня

M. Geddes Gengras
Light Pipe
Жанр: Ambient, Experimental
Издание: Room40 - RM498
Продолжительность: 02:29:55

Кодек: FLAC
Битрейт: Lossless
Тип рипа: tracks+.cue

Треклист:


CD1
01. Mirror (14:23)
02. Subway (02:36)
03. Nave (13:20)
04. Chancel (25:59)
05. Water Study (21:10)
CD2
01. Cherise (20:42)
02. Irwin (25:53)
03. Pinnacle (04:20)
04. Vulture (08:35)
05. Cherise (return) (12:58)
Код: Выделить всё
X Lossless Decoder version 20170729 (150.3)

XLD extraction logfile from 2018-12-03 18:33:06 +0000

M. Geddes Gengras / Light Pipe

Used drive : TSSTcorp CDDVDW SE-208DB (revision TS01)
Media type : Pressed CD

Ripper mode             : XLD Secure Ripper
Disable audio cache     : OK for the drive with a cache less than 1375KiB
Make use of C2 pointers : NO
Read offset correction  : 6
Max retry count         : 20
Gap status              : Analyzed, Appended (except HTOA)

TOC of the extracted CD
     Track |   Start  |  Length  | Start sector | End sector
    ---------------------------------------------------------
        1  | 00:00:00 | 14:22:67 |         0    |    64716
        2  | 14:22:67 | 02:36:23 |     64717    |    76439
        3  | 16:59:15 | 13:19:60 |     76440    |   136424
        4  | 30:19:00 | 25:59:26 |    136425    |   253375
        5  | 56:18:26 | 21:09:53 |    253376    |   348603

AccurateRip Summary
    Disc not found in AccurateRip DB.

All Tracks
    Album gain               : -4.01 dB
    Peak                     : 0.969391
    Statistics
        Read error                           : 0
        Jitter error (maybe fixed)           : 0
        Retry sector count                   : 2
        Damaged sector count                 : 0

Track 01
    Filename : /Users/sasij/Desktop/M. Geddes Gengras - Light Pipe (2018) [CD FLAC]/Disk 1/01 M. Geddes Gengras - Mirror.flac
    Pre-gap length : 00:02:00

    Track gain               : -3.28 dB
    Peak                     : 0.969391
    CRC32 hash (test run)    : BBF1F933
    CRC32 hash               : BBF1F933
    CRC32 hash (skip zero)   : 49359E9E
    AccurateRip v1 signature : DEF879D3
    AccurateRip v2 signature : 8D2A7999
        ->Track not present in AccurateRip database.
    Statistics
        Read error                           : 0
        Jitter error (maybe fixed)           : 0
        Retry sector count                   : 0
        Damaged sector count                 : 0

Track 02
    Filename : /Users/sasij/Desktop/M. Geddes Gengras - Light Pipe (2018) [CD FLAC]/Disk 1/02 M. Geddes Gengras - Subway.flac

    Track gain               : -4.24 dB
    Peak                     : 0.736572
    CRC32 hash (test run)    : 50D72C7B
    CRC32 hash               : 50D72C7B
    CRC32 hash (skip zero)   : 9DF5CE30
    AccurateRip v1 signature : CA66D104
    AccurateRip v2 signature : 0DEBE0A6
        ->Track not present in AccurateRip database.
    Statistics
        Read error                           : 0
        Jitter error (maybe fixed)           : 0
        Retry sector count                   : 0
        Damaged sector count                 : 0

Track 03
    Filename : /Users/sasij/Desktop/M. Geddes Gengras - Light Pipe (2018) [CD FLAC]/Disk 1/03 M. Geddes Gengras - Nave.flac

    Track gain               : -4.25 dB
    Peak                     : 0.969299
    CRC32 hash (test run)    : 77B63A4E
    CRC32 hash               : 77B63A4E
    CRC32 hash (skip zero)   : 1ED43996
    AccurateRip v1 signature : 36D8A60D
    AccurateRip v2 signature : BAD09BF3
        ->Track not present in AccurateRip database.
    Statistics
        Read error                           : 0
        Jitter error (maybe fixed)           : 0
        Retry sector count                   : 2
        Damaged sector count                 : 0

Track 04
    Filename : /Users/sasij/Desktop/M. Geddes Gengras - Light Pipe (2018) [CD FLAC]/Disk 1/04 M. Geddes Gengras - Chancel.flac

    Track gain               : -3.57 dB
    Peak                     : 0.969330
    CRC32 hash (test run)    : 537522B7
    CRC32 hash               : 537522B7
    CRC32 hash (skip zero)   : EACA05E6
    AccurateRip v1 signature : B3644EE4
    AccurateRip v2 signature : F45178FB
        ->Track not present in AccurateRip database.
    Statistics
        Read error                           : 0
        Jitter error (maybe fixed)           : 0
        Retry sector count                   : 0
        Damaged sector count                 : 0

Track 05
    Filename : /Users/sasij/Desktop/M. Geddes Gengras - Light Pipe (2018) [CD FLAC]/Disk 1/05 M. Geddes Gengras - Water Study.flac

    Track gain               : -4.27 dB
    Peak                     : 0.969330
    CRC32 hash (test run)    : 9EE36839
    CRC32 hash               : 9EE36839
    CRC32 hash (skip zero)   : 99695449
    AccurateRip v1 signature : D29FB4F7
    AccurateRip v2 signature : D801BD54
        ->Track not present in AccurateRip database.
    Statistics
        Read error                           : 0
        Jitter error (maybe fixed)           : 0
        Retry sector count                   : 0
        Damaged sector count                 : 0

No errors occurred

End of status report

-----BEGIN XLD SIGNATURE-----
.khRco6DWGnWCS5fTy.5ta0ycviNdbpESWDT4BVWRoM89m9Erz24IMvnk2mq2VLiszq44Q.l1tWtNeNwqTwM7KE8HbSlJWOysAh02Ne
-----END XLD SIGNATURE-----
-------------------------------------------------------------------------------------------------------------------------------------

X Lossless Decoder version 20170729 (150.3)

XLD extraction logfile from 2018-12-03 18:55:48 +0000

M. Geddes Gengras / Light Pipe

Used drive : TSSTcorp CDDVDW SE-208DB (revision TS01)
Media type : Pressed CD

Ripper mode             : XLD Secure Ripper
Disable audio cache     : OK for the drive with a cache less than 1375KiB
Make use of C2 pointers : NO
Read offset correction  : 6
Max retry count         : 20
Gap status              : Analyzed, Appended (except HTOA)

TOC of the extracted CD
     Track |   Start  |  Length  | Start sector | End sector
    ---------------------------------------------------------
        1  | 00:00:00 | 20:41:55 |         0    |    93129
        2  | 20:41:55 | 25:53:13 |     93130    |   209617
        3  | 46:34:68 | 04:19:56 |    209618    |   229098
        4  | 50:54:49 | 08:34:44 |    229099    |   267692
        5  | 59:29:18 | 12:57:72 |    267693    |   326039

AccurateRip Summary
    Disc not found in AccurateRip DB.

All Tracks
    Album gain               : -3.95 dB
    Peak                     : 0.969299
    Statistics
        Read error                           : 0
        Jitter error (maybe fixed)           : 0
        Retry sector count                   : 2
        Damaged sector count                 : 0

Track 01
    Filename : /Users/sasij/Desktop/M. Geddes Gengras - Light Pipe (2018) [CD FLAC]/Disk 2/01 M. Geddes Gengras - Cherise.flac
    Pre-gap length : 00:02:00

    Track gain               : -4.47 dB
    Peak                     : 0.936218
    CRC32 hash (test run)    : 42E54B9B
    CRC32 hash               : 42E54B9B
    CRC32 hash (skip zero)   : 0E410BF5
    AccurateRip v1 signature : 58FFD0D8
    AccurateRip v2 signature : 744A1CCD
        ->Track not present in AccurateRip database.
    Statistics
        Read error                           : 0
        Jitter error (maybe fixed)           : 0
        Retry sector count                   : 0
        Damaged sector count                 : 0

Track 02
    Filename : /Users/sasij/Desktop/M. Geddes Gengras - Light Pipe (2018) [CD FLAC]/Disk 2/02 M. Geddes Gengras - Irwin.flac

    Track gain               : -3.10 dB
    Peak                     : 0.969299
    CRC32 hash (test run)    : 94823A47
    CRC32 hash               : 94823A47
    CRC32 hash (skip zero)   : 6F0F066B
    AccurateRip v1 signature : 8A7A0DE8
    AccurateRip v2 signature : 7472DF66
        ->Track not present in AccurateRip database.
    Statistics
        Read error                           : 0
        Jitter error (maybe fixed)           : 0
        Retry sector count                   : 0
        Damaged sector count                 : 0

Track 03
    Filename : /Users/sasij/Desktop/M. Geddes Gengras - Light Pipe (2018) [CD FLAC]/Disk 2/03 M. Geddes Gengras - Pinnacle.flac

    Track gain               : -1.49 dB
    Peak                     : 0.922913
    CRC32 hash (test run)    : 31B3AE03
    CRC32 hash               : 31B3AE03
    CRC32 hash (skip zero)   : FB179C29
    AccurateRip v1 signature : 4801B2B3
    AccurateRip v2 signature : 3221509B
        ->Track not present in AccurateRip database.
    Statistics
        Read error                           : 0
        Jitter error (maybe fixed)           : 0
        Retry sector count                   : 0
        Damaged sector count                 : 0

Track 04
    Filename : /Users/sasij/Desktop/M. Geddes Gengras - Light Pipe (2018) [CD FLAC]/Disk 2/04 M. Geddes Gengras - Vulture.flac

    Track gain               : -3.71 dB
    Peak                     : 0.911133
    CRC32 hash (test run)    : 23A47FFD
    CRC32 hash               : 23A47FFD
    CRC32 hash (skip zero)   : 95CC3D60
    AccurateRip v1 signature : 47F4EBD7
    AccurateRip v2 signature : 30216FF0
        ->Track not present in AccurateRip database.
    Statistics
        Read error                           : 0
        Jitter error (maybe fixed)           : 0
        Retry sector count                   : 0
        Damaged sector count                 : 0

Track 05
    Filename : /Users/sasij/Desktop/M. Geddes Gengras - Light Pipe (2018) [CD FLAC]/Disk 2/05 M. Geddes Gengras - Cherise (Return).flac

    Track gain               : -3.22 dB
    Peak                     : 0.842560
    CRC32 hash (test run)    : 4C09E17A
    CRC32 hash               : 4C09E17A
    CRC32 hash (skip zero)   : FF9A88DC
    AccurateRip v1 signature : 99D2FDBB
    AccurateRip v2 signature : 4AA2DE0F
        ->Track not present in AccurateRip database.
    Statistics
        Read error                           : 0
        Jitter error (maybe fixed)           : 0
        Retry sector count                   : 2
        Damaged sector count                 : 0

No errors occurred

End of status report

-----BEGIN XLD SIGNATURE-----
tbQCMUjAwTslj5EGVOqq1IGwtBZBCE0b.ni3txlCe0.kI_VXj1Zdtaf2TwtYVVztl2bN.YTfKcoD4H.7N7CpDTs5w5GLcD8jhe1d80q
-----END XLD SIGNATURE-----

 
Код: Выделить всё
TITLE "Light Pipe"
PERFORMER "M. Geddes Gengras"
REM DATE "2018"
REM DISCNUMBER 1
REM TOTALDISCS 2
REM DISCID 32122805
REM REPLAYGAIN_ALBUM_GAIN -4.01 dB
REM REPLAYGAIN_ALBUM_PEAK 0.969391
FILE "01 M. Geddes Gengras - Mirror.flac" WAVE
  TRACK 01 AUDIO
    TITLE "Mirror"
    REM REPLAYGAIN_TRACK_GAIN -3.28 dB
    REM REPLAYGAIN_TRACK_PEAK 0.969391
    INDEX 01 00:00:00
FILE "02 M. Geddes Gengras - Subway.flac" WAVE
  TRACK 02 AUDIO
    TITLE "Subway"
    REM REPLAYGAIN_TRACK_GAIN -4.24 dB
    REM REPLAYGAIN_TRACK_PEAK 0.736572
    INDEX 01 00:00:00
FILE "03 M. Geddes Gengras - Nave.flac" WAVE
  TRACK 03 AUDIO
    TITLE "Nave"
    REM REPLAYGAIN_TRACK_GAIN -4.25 dB
    REM REPLAYGAIN_TRACK_PEAK 0.969299
    INDEX 01 00:00:00
FILE "04 M. Geddes Gengras - Chancel.flac" WAVE
  TRACK 04 AUDIO
    TITLE "Chancel"
    REM REPLAYGAIN_TRACK_GAIN -3.57 dB
    REM REPLAYGAIN_TRACK_PEAK 0.969330
    INDEX 01 00:00:00
FILE "05 M. Geddes Gengras - Water Study.flac" WAVE
  TRACK 05 AUDIO
    TITLE "Water Study"
    REM REPLAYGAIN_TRACK_GAIN -4.27 dB
    REM REPLAYGAIN_TRACK_PEAK 0.969330
    INDEX 01 00:00:00
------------------------------------------------------------------------

TITLE "Light Pipe"
PERFORMER "M. Geddes Gengras"
REM DATE "2018"
REM DISCNUMBER 2
REM TOTALDISCS 2
REM DISCID 4210FB05
REM REPLAYGAIN_ALBUM_GAIN -3.95 dB
REM REPLAYGAIN_ALBUM_PEAK 0.969299
FILE "01 M. Geddes Gengras - Cherise.flac" WAVE
  TRACK 01 AUDIO
    TITLE "Cherise"
    REM REPLAYGAIN_TRACK_GAIN -4.47 dB
    REM REPLAYGAIN_TRACK_PEAK 0.936218
    INDEX 01 00:00:00
FILE "02 M. Geddes Gengras - Irwin.flac" WAVE
  TRACK 02 AUDIO
    TITLE "Irwin"
    REM REPLAYGAIN_TRACK_GAIN -3.10 dB
    REM REPLAYGAIN_TRACK_PEAK 0.969299
    INDEX 01 00:00:00
FILE "03 M. Geddes Gengras - Pinnacle.flac" WAVE
  TRACK 03 AUDIO
    TITLE "Pinnacle"
    REM REPLAYGAIN_TRACK_GAIN -1.49 dB
    REM REPLAYGAIN_TRACK_PEAK 0.922913
    INDEX 01 00:00:00
FILE "04 M. Geddes Gengras - Vulture.flac" WAVE
  TRACK 04 AUDIO
    TITLE "Vulture"
    REM REPLAYGAIN_TRACK_GAIN -3.71 dB
    REM REPLAYGAIN_TRACK_PEAK 0.911133
    INDEX 01 00:00:00
FILE "05 M. Geddes Gengras - Cherise (Return).flac" WAVE
  TRACK 05 AUDIO
    TITLE "Cherise (Return)"
    REM REPLAYGAIN_TRACK_GAIN -3.22 dB
    REM REPLAYGAIN_TRACK_PEAK 0.842560
    INDEX 01 00:00:00

 
Время раздачи: 12/7
Не забывайте говорить Спасибо. Не уходите с раздачи!   
Торрент: Зарегистрирован [04 дек 2018, 12:40] Для скачивания .torrent
необходима регистрация
Или скачать с помощью
MediaGet
Статус:
Проверен
 
.torrent скачан: 0 раз
Хэш: dadc83ced7335ea0a9b40b44031cd1a701678634
Размер: 768.56 МБ (805 897 510 байт)
   Стать Автором раздачи
   
Цитата

Вернуться в Electronic

Кто сейчас на конференции

Сейчас эту тему просматривают: нет зарегистрированных пользователей и гости: 1