Яблочное зернышко: Проект Альфа / Appleseed Alpha (Синдзи Арамаки / Shinji Aramaki ) [2014, Япония, США, мультфильм, боевик, приключения, фантастика, BDRip 1080] MVO (Студия Пифагор)

 Статистика раздачи 
Размер: 5.75 ГБ   |  Зарегистрирован: 22 июн 2015, 00:41   |   .torrent скачан: 325 раз
Сидеров: 80  [ 0 байт/сек ]     Личеров: 1  [ 0 байт/сек ]  
  
Аватара пользователя
Главный редактор
Главный редактор
Автор темы
Раздал: 10.09 ТБ
Скачал: 1.76 ТБ
Ратио: 6.147
Сообщения: 3357
Стаж: 6 лет 8 месяцев 30 дней
Откуда: Санкт-Петербург

Яблочное зернышко: Проект Альфа / Appleseed Alpha


Русское название: Проект Альфа
Оригинальное название: Appleseed Alpha
Год выхода: 2014
Режиссер: Синдзи Арамаки / Shinji Aramaki
В ролях: Юка Комацу, Джуничи Сувабе, Аои Юки, Такахаси Хироки, Хироки Тоти, Каори Назука, Кацуносукэ Хори, Тэссё Гэнда, Элизабет Банч, Вендел Кэлвер
Роли дублировали: Сергей Чихачев, Мария Иващенко, Данил Щеблано
Страна производства: Япония, США
Студия: Lucent Pictures & Sony Pictures
Продолжительность: 93 мин. / 01:33:16
Композитор: Тецуя Такахаси
Продюсер: Джозеф Чоу, Джои Гобео, Эйчи Камагата
Сценарий: Марианн Кравчик, Масамунэ Сиро
Премьера в мире: 2 июля 2014
Жанр: мультфильм, боевик, приключения, фантастика
Перевод: Многоголосый, закадровый (Студия Пифагор)
Описание: На основе комиксов, от создателя Призрак в доспехах. Молодой солдат Дюнан и киборг Бриарей, пережив третью мировую войну, путешествуют по апокалиптическому Нью-Йорку, в поисках легендарного города Олимпа, будущего оплота человечества. Действие посвящено боевой биографии Дюнан и Бриарея до попадания в Олимп.
Рейтинг MPAA: PG-13 - Детям до 13 лет просмотр не желателен
Рейтинг IMDB:
Рейтинг Kinopoisk:
Контейнер: MKV
Качество HD: BDRip 1080 от SuperMin
Формат аудио: AC3
Формат видео: H.264
Видео: 1920х1080 (16:9), 8440 Kbps, 23.976 fps
Аудио: Русский: AC3, 384 Kbps, 48KHz, 6ch [Студия Пифагор]
Субтитры: русские субтитры от JCWD, английские субтитры с BD
Код: Выделить всё
Video
ID : 1
Format : AVC
Format/Info : Advanced Video Codec
Format profile : [email protected]
Format settings, CABAC : Yes
Format settings, ReFrames : 4 frames
Codec ID : V_MPEG4/ISO/AVC
Duration : 1h 33mn
Bit rate : 8 440 Kbps
Width : 1 920 pixels
Height : 1 080 pixels
Display aspect ratio : 16:9
Frame rate mode : Constant
Frame rate : 23.976 fps
Color space : YUV
Chroma subsampling : 4:2:0
Bit depth : 8 bits
Scan type : Progressive
Bits/(Pixel*Frame) : 0.170
Stream size : 5.38 GiB (94%)
Writing library : x264 core 146 r2538 121396c
Encoding settings : cabac=1 / ref=4 / deblock=1:-1:-1 / analyse=0x3:0x113 / me=umh / subme=10 / psy=1 / psy_rd=1.00:0.00 / mixed_ref=1 / me_range=32 / chroma_me=1 / trellis=2 / 8x8dct=1 / cqm=0 / deadzone=21,11 / fast_pskip=0 / chroma_qp_offset=-2 / threads=3 / lookahead_threads=1 / sliced_threads=0 / nr=0 / decimate=1 / interlaced=0 / bluray_compat=0 / constrained_intra=0 / bframes=7 / b_pyramid=2 / b_adapt=2 / b_bias=0 / direct=1 / weightb=1 / open_gop=0 / weightp=2 / keyint=230 / keyint_min=22 / scenecut=40 / intra_refresh=0 / rc_lookahead=40 / rc=2pass / mbtree=1 / bitrate=8440 / ratetol=1.0 / qcomp=0.60 / qpmin=0 / qpmax=69 / qpstep=4 / cplxblur=20.0 / qblur=0.5 / vbv_maxrate=62500 / vbv_bufsize=78125 / nal_hrd=none / filler=0 / ip_ratio=1.40 / aq=1:0.80
Default : Yes
Forced : No

Audio
ID : 2
Format : AC-3
Format/Info : Audio Coding 3
Mode extension : CM (complete main)
Format settings, Endianness : Big
Codec ID : A_AC3
Duration : 1h 33mn
Bit rate mode : Constant
Bit rate : 384 Kbps
Channel count : 6 channels
Channel positions : Front: L C R, Side: L R, LFE
Sampling rate : 48.0 KHz
Bit depth : 16 bits
Compression mode : Lossy
Stream size : 256 MiB (4%)
Language : Russian
Default : No
Forced : No

Text #1
ID : 3
Format : ASS
Codec ID : S_TEXT/ASS
Codec ID/Info : Advanced Sub Station Alpha
Compression mode : Lossless
Language : English
Default : No
Forced : No

Text #2
ID : 4
Format : ASS
Codec ID : S_TEXT/ASS
Codec ID/Info : Advanced Sub Station Alpha
Compression mode : Lossless
Language : Russian
Default : No
Forced : No
   
Торрент: Зарегистрирован [22 июн 2015, 00:41] Скачать торрент Магнет ссылка
Скачать торрент
[ Размер 15.17 КБ / Просмотров 342 ]
Статус:
Проверен
 
.torrent скачан: 325 раз
Размер: 5.75 ГБ (6 173 160 111 байт)
   
 
 
Цитата
  • Похожие торренты
    Ответы
    Просмотры
    Последнее сообщение

Вернуться в Аниме, Японские мультфильмы

Кто сейчас на конференции

Сейчас эту тему просматривают: нет зарегистрированных пользователей и гости: 1