Фокус / Focus (2015) [2015, США, Аргентина, драма, мелодрама, комедия, криминал, BDRip 1080p] Дубляж

 Статистика раздачи 
Размер: 14.14 ГБ   |  Зарегистрирован: 19 июн 2015, 11:45   |   .torrent скачан: 2065 раз
Сидеров: 41  [ 0 байт/сек ]     Личеров: 3  [ 0 байт/сек ]  
  
Аватара пользователя
Главный редактор
Главный редактор
Автор темы
Раздал: 10.09 ТБ
Скачал: 1.76 ТБ
Ратио: 6.147
Сообщения: 3349
Стаж: 6 лет 7 месяцев 3 дня
Откуда: Санкт-Петербург

Фокус / Focus

«Узнай в чём фокус»


Русское название: Фокус
Оригинальное название: Focus
Год выхода: 2014
Режиссер: Гленн Фикарра, Джон Рекуа / Glenn Ficarra, John Requa
В ролях: Уилл Смит, Марго Робби, Адриан Мартинес, Джералд МакРэйни, Родриго Санторо, Б.Д. Вонг, Бреннан Браун, Роберт Тейлор, Дотан Бонен, Грифф Ферс
Роли дублировали: Всеволод Кузнецов, Татьяна Шитова, Константин Карасик, Тимофей Спивак, Сергей Смирно
Страна производства: США, Аргентина
Продолжительность: 104 мин. / 01:44:44
Композитор: Ник Урата
Монтаж: Ян Ковач
Художник: Бет Микл, Келли Керли, Дэйна Пинк
Оператор: Хавьер Гробет
Продюсер: Дениз Ди Нови, Чарли Гоголак, Стэн Влодковски
Слоган: 'Узнай в чём фокус'
Сценарий: Гленн Фикарра, Джон Рекуа
Сборы в России: $8 751 683
Сборы в мире: + $100 100 000 = $153 962 963
Сборы в США: $53 862 963
Бюджет: $50 100 000
Ре-релиз в РФ: 26 февраля 2015
Релиз Blu-Ray: 25 июня 2015
Релиз DVD: 25 июня 2015
Премьера в РФ: 26 февраля 2015
Премьера в мире: 25 февраля 2015
Жанр: драма, мелодрама, комедия, криминал
Перевод: Профессиональный (дублированный)
Описание: История об опытном мошеннике, который влюбляется в девушку, делающую первые шаги на поприще нелегального отъема средств у граждан. Отношения становятся для них проблемой, когда обнаруживается, что романтика мешает их нечестному бизнесу.
Рейтинг MPAA: R - Лицам до 17 лет обязательно присутствие взрослого
Рейтинг IMDB:
Рейтинг Kinopoisk:

Контейнер: MKV
Качество HD: BDRip 1080p
Формат аудио: AC3, DTS
Формат видео: H.264
Видео: MPEG-4 AVC, 16.8 Mбит/с, 1920x1080, 23,976 fps
Аудио 1: Русский: AC3, 640 kb/s (6 ch), 48 kHz
Аудио 2: Английский: DTS, 1510 kb/s (6 ch), 48 kHz
Cубтитры: Rus, Eng softsub (SRT)
Присутствует навигация по главам
• Чтобы придумать и поставить оригинальные движения карманников и обучить им Уилла Смита, Марго Робби и других актеров, режиссеры пригласили всемирно известного эксперта Аполло Роббинса (Apollo Robbins), знакомого многим в качестве «Джентльмена-вора».
• Марго Робби отдыхала со своим братом на острове в Хорватии, когда ей позвонили и предложили пройти прослушивание на роль Джесс. Она прибыла в отель к 6 утра. Ее рейс был в тот же день. За 20 минут она собрала все вещи, села на катамаран до главного острова, а затем на автобусе добралась до аэропорта. Прождав 6 часов в аэропорту она, наконец, вылетела во Францию, где ей пришлось прождать еще 6 часов до вылета в Нью-Йорк. Прибыв в Нью-Йорк, она обнаружила, что ее багаж пропал. В итоге она без косметики, в джинсовых шортах и рубашке, все же успела на прослушивание. Уилл Смит на это прослушивание опоздал. Когда он вошел, то сказал, что ехал из Куинса, на что Робби сказала, что она только что прилетела с острова, расположенного в Хорватии, но при этом все равно пришла вовремя. По словам Робби, как ей показалось, в итоге это помогло ей получить роль.
• На роль Джесс рассматривались Эмма Стоун, Мишель Уильямс, Джессика Бил, Роуз Бирн, Оливия Манн и Кристен Стюарт, но, в конечном счете, роль досталась Марго Робби.
• После того как Райан Гослинг покинул проект, главную роль предлагали Брэду Питту, но он отказался, и Бену Аффлеку, который в итоге также покинул проект из-за несогласованности расписаний съемок.
• Роль Фархада предлагали Арти Лэнгу и Омиду Джалили, но оба актера отказались.

Ошибки в фильме

• Когда Фархад рассказывает Джесс в летнем кафе о том, как без неё плохо Никки, бокал в руке Джесс то исчезает, то появляется.

Код: Выделить всё
Format : Matroska
Format version : Version 4 / Version 2
File size : 14.1 GiB
Duration : 1h 44mn
Overall bit rate : 19.3 Mbps
Movie name : Фокус. (Tonik)
Encoded date : UTC 2015-06-18 18:15:19
Writing application : mkvmerge v7.1.0 ('Good Love') 64bit built on Jul 27 2014 13:06:55
Writing library : libebml v1.3.0 + libmatroska v1.4.1
_STATISTICS_WRITING_APP : mkvmerge v7.1.0 ('Good Love') 64bit built on Jul 27 2014 13:06:55
_STATISTICS_WRITING_DATE_UTC : 2015-06-18 18:15:19
_STATISTICS_TAGS : BPS DURATION NUMBER_OF_FRAMES NUMBER_OF_BYTES
DURATION : 01:44:44.161000000
NUMBER_OF_FRAMES : 589140
NUMBER_OF_BYTES : 1185349680

Video
ID : 1
Format : AVC
Format/Info : Advanced Video Codec
Format profile : [email protected]
Format settings, CABAC : Yes
Format settings, ReFrames : 4 frames
Codec ID : V_MPEG4/ISO/AVC
Duration : 1h 44mn
Bit rate : 16.8 Mbps
Width : 1 920 pixels
Height : 1 080 pixels
Display aspect ratio : 16:9
Frame rate mode : Constant
Frame rate : 23.976 fps
Color space : YUV
Chroma subsampling : 4:2:0
Bit depth : 8 bits
Scan type : Progressive
Bits/(Pixel*Frame) : 0.338
Stream size : 12.3 GiB (87%)
Writing library : x264 core 146 r2538 121396c
Encoding settings : cabac=1 / ref=4 / deblock=1:-3:-3 / analyse=0x3:0x133 / me=umh / subme=10 / psy=1 / psy_rd=1.02:0.00 / mixed_ref=1 / me_range=48 / chroma_me=1 / trellis=2 / 8x8dct=1 / cqm=0 / deadzone=21,11 / fast_pskip=1 / chroma_qp_offset=-2 / threads=16 / lookahead_threads=2 / sliced_threads=0 / nr=0 / decimate=1 / interlaced=0 / bluray_compat=0 / constrained_intra=0 / bframes=8 / b_pyramid=2 / b_adapt=2 / b_bias=0 / direct=3 / weightb=1 / open_gop=0 / weightp=2 / keyint=250 / keyint_min=23 / scenecut=40 / intra_refresh=0 / rc_lookahead=150 / rc=crf / mbtree=0 / crf=18.2 / qcomp=0.70 / qpmin=0 / qpmax=69 / qpstep=4 / vbv_maxrate=50000 / vbv_bufsize=62500 / crf_max=0.0 / nal_hrd=none / filler=0 / ip_ratio=1.20 / pb_ratio=1.20 / aq=3:0.68
Language : English
Default : Yes
Forced : No
DURATION : 01:44:44.153000000
NUMBER_OF_FRAMES : 150669
NUMBER_OF_BYTES : 13489803958
_STATISTICS_WRITING_APP : mkvmerge v7.1.0 ('Good Love') 64bit built on Jul 27 2014 13:06:55
_STATISTICS_WRITING_DATE_UTC : 2015-06-18 18:15:19
_STATISTICS_TAGS : BPS DURATION NUMBER_OF_FRAMES NUMBER_OF_BYTES

Audio #1
ID : 2
Format : AC-3
Format/Info : Audio Coding 3
Mode extension : CM (complete main)
Format settings, Endianness : Big
Codec ID : A_AC3
Duration : 1h 44mn
Bit rate mode : Constant
Bit rate : 640 Kbps
Channel(s) : 6 channels
Channel positions : Front: L C R, Side: L R, LFE
Sampling rate : 48.0 KHz
Bit depth : 16 bits
Compression mode : Lossy
Stream size : 479 MiB (3%)
Title : Blu-ray CEE
Language : Russian
Default : Yes
Forced : No

Audio #2
ID : 3
Format : DTS
Format/Info : Digital Theater Systems
Mode : 16
Format settings, Endianness : Big
Codec ID : A_DTS
Duration : 1h 44mn
Bit rate mode : Constant
Bit rate : 1 509 Kbps
Channel(s) : 6 channels
Channel positions : Front: L C R, Side: L R, LFE
Sampling rate : 48.0 KHz
Bit depth : 24 bits
Compression mode : Lossy
Stream size : 1.10 GiB (8%)
Language : English
Default : No
Forced : No

Text #1
ID : 4
Format : UTF-8
Codec ID : S_TEXT/UTF8
Codec ID/Info : UTF-8 Plain Text
Title : Forced
Language : Russian
Default : Yes
Forced : No

Text #2
ID : 5
Format : UTF-8
Codec ID : S_TEXT/UTF8
Codec ID/Info : UTF-8 Plain Text
Title : Full
Language : Russian
Default : No
Forced : No

Text #3
ID : 6
Format : UTF-8
Codec ID : S_TEXT/UTF8
Codec ID/Info : UTF-8 Plain Text
Language : English
Default : No
Forced : No

Text #4
ID : 7
Format : UTF-8
Codec ID : S_TEXT/UTF8
Codec ID/Info : UTF-8 Plain Text
Title : SDH
Language : English
Default : No
Forced : No

Text #5
ID : 8
Format : UTF-8
Codec ID : S_TEXT/UTF8
Codec ID/Info : UTF-8 Plain Text
Title : SDH Colored
Language : English
Default : No
Forced : No

Menu
00:00:00.000 : en:Chapter 1
00:09:17.974 : en:Chapter 2
00:18:55.217 : en:Chapter 3
00:30:22.904 : en:Chapter 4
00:40:56.078 : en:Chapter 5
00:49:16.370 : en:Chapter 6
01:00:10.481 : en:Chapter 7
01:11:02.758 : en:Chapter 8
01:20:27.489 : en:Chapter 9
01:28:33.891 : en:Chapter 10
   
Торрент: Зарегистрирован [19 июн 2015, 11:45] Скачать торрент Магнет ссылка
Скачать торрент
[ Размер 36.01 КБ / Просмотров 107 ]
Статус:
Проверен
 
.torrent скачан: 2065 раз
Размер: 14.14 ГБ (15 180 598 446 байт)
   
 
 
Цитата
  • Похожие торренты
    Ответы
    Просмотры
    Последнее сообщение

Вернуться в Зарубежное кино (HD Video)

Кто сейчас на конференции

Сейчас эту тему просматривают: нет зарегистрированных пользователей и гости: 1