Месть и Закон / Sholay (Рамеш Сиппи / Ramesh Sippy) [1975, Индия, Боевик, драма., WEB-DL 1080p] DVO (SDI Media) + Original Hin

 Статистика раздачи 
Размер: 8.57 ГБ   |  Зарегистрирован: 14 ноя 2018, 00:25   |   .torrent скачан: 0 раз
Сидеров: 5  [ 0 байт/сек ]     Личеров: 1  [ 0 байт/сек ]  
  
Аватара пользователя
 
Раздал: 0 байт
Скачал: 0 байт
Ратио: Inf.
Сообщения: 11394
Стаж: 7 лет 10 месяцев
Откуда: France

Месть и Закон / Sholay
Страна: Индия
Студия: Sippy Films Pvt. Ltd.
Жанр: Боевик, драма.
Год выпуска: 1975
Продолжительность: 03:13:01
Перевод: Профессиональный (двухголосый закадровый) SDI Media по заказу ТПО Red Media
Субтитры: Нет
Оригинальная аудиодорожка: Хинди
Режиссер: Рамеш Сиппи / Ramesh Sippy
В ролях: Дхармендра, Хема Малини, Амитабх Баччан, Джая Бхадури, Санджив Кумар, Амджад Кхан, А.К. Хангал, Сатиендра Капур.
Описание: Полицейскому управлению удалось напасть на след банды и схватить самого главаря — Габбар Синха. Но ни в одной камере нет таких стен, которые могли бы удержать его. Преступник бежит из тюрьмы и жестоко расправляется с семьей инспектора полиции.
Чтобы отомстить кровавому насильнику и защитить мирную деревню от банды разбойников, инспектор Тхакур нанимает двоих смельчаков. У него свой счет к главарю банды, но месть смирится перед законом…
Доп. информация: За видеоряд спасибо JayViru с BwTorrents, добавлена дорожка SDI Media с личной коллекции.
Данный перевод впервые на трекере и в сети.
Приятного просмотра.
Сэмпл: https://www.sendspace.com/file/n045fl
Релиз:
Тип релиза: WEB-DL 1080p
Контейнер: MKV
Видео: MPEG4 Video (H264) 1920x1080 25fps, 6 000 kb/s
Аудио: Dolby AC3 48000Hz stereo 192kbps
Аудио: Dolby AC3 48000Hz stereo 224kbps
Код: Выделить всё
Полное имя                               : F:\Скачевание с торрент трекеров\Месть и закон (Sholay) [1975].mkv
Формат                                   : Matroska
Версия формата                           : Version 4
Размер файла                             : 8,57 Гбайт
Продолжительность                        : 3 ч. 13 м.
Общий поток                              : 6356 Кбит/сек
Дата кодирования                         : UTC 2018-11-13 22:36:53
Программа кодирования                    : mkvmerge v27.0.0 ('Metropolis') 64-bit
Библиотека кодирования                   : libebml v1.3.6 + libmatroska v1.4.9
Видео
Идентификатор                            : 1
Формат                                   : AVC
Формат/Информация                        : Advanced Video Codec
Профиль формата                          : Main@L4
Настройки формата                        : CABAC / 2 Ref Frames
Параметр CABAC формата                   : Да
Параметр RefFrames формата               : 2 кадра
Идентификатор кодека                     : V_MPEG4/ISO/AVC
Продолжительность                        : 3 ч. 13 м.
Битрейт                                  : 6000 Кбит/сек
Ширина                                   : 1920 пикселей
Высота                                   : 1080 пикселей
Соотношение сторон                       : 16:9
Режим частоты кадров                     : Постоянный
Частота кадров                           : 25,000 кадров/сек
Цветовое пространство                    : YUV
Субдискретизация насыщенности            : 4:2:0
Битовая глубина                          : 8 бит
Тип развёртки                            : Прогрессивная
Бит/(Пиксели*Кадры)                      : 0.116
Размер потока                            : 8,01 Гбайт (93%)
Библиотека кодирования                   : x264 core 144 r2533 c8a773e
Настройки программы                      : cabac=1 / ref=1 / deblock=1:0:0 / analyse=0x1:0 / me=dia / subme=2 / psy=1 / psy_rd=1.00:0.00 / mixed_ref=0 / me_range=16 / chroma_me=0 / trellis=0 / 8x8dct=0 / cqm=0 / deadzone=21,11 / fast_pskip=1 / chroma_qp_offset=0 / threads=6 / lookahead_threads=2 / sliced_threads=0 / nr=0 / decimate=1 / interlaced=0 / bluray_compat=0 / constrained_intra=0 / bframes=3 / b_pyramid=0 / b_adapt=1 / b_bias=0 / direct=1 / weightb=1 / open_gop=0 / weightp=2 / keyint=250 / keyint_min=25 / scenecut=40 / intra_refresh=0 / rc_lookahead=40 / rc=abr / mbtree=1 / bitrate=6000 / ratetol=1.0 / qcomp=0.60 / qpmin=10 / qpmax=51 / qpstep=4 / ip_ratio=1.41 / aq=1:1.00
Default                                  : Да
Forced                                   : Нет
Аудио #1
Идентификатор                            : 2
Формат                                   : AC-3
Формат/Информация                        : Audio Coding 3
Коммерческое название                    : Dolby Digital
Идентификатор кодека                     : A_AC3
Продолжительность                        : 3 ч. 13 м.
Вид битрейта                             : Постоянный
Битрейт                                  : 192 Кбит/сек
Каналы                                   : 2 канала
Channel layout                           : L R
Частота                                  : 48,0 КГц
Частота кадров                           : 31,250 кадров/сек (1536 SPF)
Битовая глубина                          : 16 бит
Метод сжатия                             : С потерями
Задержка видео                           : -45 мс.
Размер потока                            : 265 Мбайт (3%)
Заголовок                                : SDI Media
Язык                                     : Russian
ServiceKind/String                       : Complete Main
Default                                  : Да
Forced                                   : Нет
Аудио #2
Идентификатор                            : 3
Формат                                   : AC-3
Формат/Информация                        : Audio Coding 3
Коммерческое название                    : Dolby Digital
Идентификатор кодека                     : A_AC3
Продолжительность                        : 3 ч. 13 м.
Вид битрейта                             : Постоянный
Битрейт                                  : 224 Кбит/сек
Каналы                                   : 2 канала
Channel layout                           : L R
Частота                                  : 48,0 КГц
Частота кадров                           : 31,250 кадров/сек (1536 SPF)
Битовая глубина                          : 16 бит
Метод сжатия                             : С потерями
Задержка видео                           : -45 мс.
Размер потока                            : 309 Мбайт (4%)
Заголовок                                : Original
Язык                                     : Hindi
ServiceKind/String                       : Complete Main
Default                                  : Нет
Forced                                   : Нет
Не забывайте говорить Спасибо. Не уходите с раздачи!   
Торрент: Зарегистрирован [14 ноя 2018, 00:25] Для скачивания .torrent
необходима регистрация
Или скачать с помощью
MediaGet
Статус:
Проверен
 
.torrent скачан: 0 раз
Хэш: 90b4efbc611f73895337edb4199870311911a6f5
Размер: 8.57 ГБ (9 201 622 301 байт)
   Стать Автором раздачи
   
Цитата
  • Похожие торренты
    Ответы
    Просмотры
    Последнее сообщение

Вернуться в Индийское кино

Кто сейчас на конференции

Сейчас эту тему просматривают: нет зарегистрированных пользователей и гости: 1