Кобейн: Чёртов монтаж / Kurt Cobain: Montage of Heck (2015) HDTVRip [H.264/1080p] [EN] [RU SUB]

 Статистика раздачи 
Размер: 5.03 ГБ   |  Зарегистрирован: 16 май 2015, 22:50   |   .torrent скачан: 1 раз
Сидеров: 79  [ 0 байт/сек ]     Личеров: 5  [ 0 байт/сек ]  
  
Аватара пользователя
Администратор
Администратор
 
Раздал: 24.48 ТБ
Скачал: 388.83 ГБ
Ратио: 145.352
Сообщения: 6395
Стаж: 8 лет 1 месяц 5 дней
Откуда: Lithuania

Кобейн: Чёртов монтаж / Kurt Cobain: Montage of Heck


Русское название: Кобейн: Чёртов монтаж
Оригинальное название: Kurt Cobain: Montage of Heck
Год выхода: 2015
Режиссер: Бретт Морген
В ролях: Курт Кобейн, Кортни Лав, Трейси Марандер, Крист Новоселик, Лори Барберо, Чад Чаннинг, Лори Голдстон, Базз Осбор
Страна производства: США
Продолжительность:02:12:23
Композитор: Джефф Дэнна
Монтаж: Джо Бешенковски, Бретт Морген
Оператор: Джим Уайтакер, Николь Хирш
Продюсер: Бретт Морген, Даниэль Ренфрю, Джессика Берман Богдан
Сценарий: Бретт Морген
Ре-релиз в РФ: 27 апреля 2015
Премьера в РФ: 27 апреля 2015
Премьера в мире: 24 января 2015
Жанр: документальный, биография, музыка


Описание: Взгляд на жизнь, творчество и мысли Курта Кобейна, кумира целого поколения и одной из ярчайших фигур конца XX века.После смерти Кобейна права на все его неопубликованные материалы были поделены между участниками Nirvana и родственниками музыканта. Автору фильма был предоставлен беспрецедентный доступ к личным архивам музыканта всеми правообладателями оных. При помощи анимации, откровенных интервью с ближайшими соратниками певца, а также рисунков и домашних видеозаписей самого Курта, 'Чёртов монтаж' отслеживает творческий путь Кобейна от самых ранних начинаний в городе Абердин, штат Вашингтон, до зенита всемирной славы и находит за титанической фигурой легенды мировой рок-музыки уязвимого человека, жившего в вечной борьбе с миром вокруг.


Рейтинг IMDB:
Рейтинг Kinopoisk:





Контейнер: MKV
Качество HD: HDTVRip 1080p
Формат аудио: AC3
Формат видео: H.264
Видео: AVC/H.264, ~4948 Kbps, 1916x1076
Аудио: (Английский) 48,0 kHz, AC3 5.1, 384 Kbps | Оригинал


Код: Выделить всё
General
Unique ID                   : 214870192598310424295947264919277065247 (0xA1A67E6A35B9732FB89C363E60EED41F)
Complete name               : D:\Cobain.Montage.of.Heck.HDTVRip.1080p.mkv
Format                      : Matroska
Format version              : Version 4 / Version 2
File size                   : 5.03 GiB
Duration                    : 2h 12mn
Overall bit rate            : 5 440 Kbps
Movie name                  : LB4NNM
Encoded date                : UTC 2015-05-10 19:13:54
Writing application         : mkvmerge v7.8.0 ('River Man') 32bit built on Mar 27 2015 16:18:02
Writing library             : libebml v1.3.1 + libmatroska v1.4.2
Attachements                : cover.jpg
_STATISTICS_WRITING_APP     : mkvmerge v7.8.0 ('River Man') 32bit built on Mar 27 2015 16:18:02
_STATISTICS_WRITING_DATE_UT : 2015-05-10 19:13:54
_STATISTICS_TAGS            : BPS DURATION NUMBER_OF_FRAMES NUMBER_OF_BYTES
DURATION                    : 02:08:22.283000000
NUMBER_OF_FRAMES            : 1064
NUMBER_OF_BYTES             : 50725

Video
ID                          : 1
Format                      : AVC
Format/Info                 : Advanced Video Codec
Format profile              : High@L4
Format settings, CABAC      : Yes
Format settings, ReFrames   : 4 frames
Codec ID                    : V_MPEG4/ISO/AVC
Duration                    : 2h 12mn
Bit rate                    : 4 948 Kbps
Width                       : 1 916 pixels
Height                      : 1 076 pixels
Display aspect ratio        : 16:9
Frame rate mode             : Constant
Frame rate                  : 23.976 fps
Color space                 : YUV
Chroma subsampling          : 4:2:0
Bit depth                   : 8 bits
Scan type                   : Progressive
Bits/(Pixel*Frame)          : 0.100
Stream size                 : 4.58 GiB (91%)
Title                       : MPEG-4 AVC, ~4948 Kbps, 1916x1076
Language                    : English
Default                     : Yes
Forced                      : No
Color range                 : Limited
Color primaries             : BT.709
Transfer characteristics    : BT.709
Matrix coefficients         : BT.709

Audio
ID                          : 2
Format                      : AC-3
Format/Info                 : Audio Coding 3
Mode extension              : CM (complete main)
Format settings, Endianness : Big
Codec ID                    : A_AC3
Duration                    : 2h 12mn
Bit rate mode               : Constant
Bit rate                    : 384 Kbps
Channel(s)                  : 6 channels
Channel positions           : Front: L C R, Side: L R, LFE
Sampling rate               : 48.0 KHz
Compression mode            : Lossy
Stream size                 : 364 MiB (7%)
Title                       : (Английский) 48,0 kHz, AC3 5.1, 384 Kbps | Оригинал
Language                    : English
Default                     : Yes
Forced                      : No

Text #1
ID                          : 3
Format                      : UTF-8
Codec ID                    : S_TEXT/UTF8
Codec ID/Info               : UTF-8 Plain Text
Title                       : Full
Language                    : Danish
Default                     : Yes
Forced                      : No

Text #2
ID                          : 4
Format                      : UTF-8
Codec ID                    : S_TEXT/UTF8
Codec ID/Info               : UTF-8 Plain Text
Title                       : Full
Language                    : Finnish
Default                     : No
Forced                      : No

Text #3
ID                          : 5
Format                      : UTF-8
Codec ID                    : S_TEXT/UTF8
Codec ID/Info               : UTF-8 Plain Text
Title                       : Full
Language                    : Swedish
Default                     : No
Forced                      : No

Не забывайте говорить Спасибо. Не уходите с раздачи!   
Торрент: Зарегистрирован [16 май 2015, 22:50] Для скачивания .torrent
необходима регистрация
Или скачать с помощью
MediaGet
Статус:
Проверен
 
.torrent скачан: 1 раз
Хэш: 134913e58f5856d138fc611ffacdc73a39899cb8
Размер: 5.03 ГБ (5 401 464 490 байт)
   Стать Автором раздачи
   
Цитата
  • Похожие торренты
    Ответы
    Просмотры
    Последнее сообщение

Вернуться в Личности

Кто сейчас на конференции

Сейчас эту тему просматривают: нет зарегистрированных пользователей и гости: 1