(Rock, Blues, Blues Rock) [CD] Eric Clapton - Forever Man (3CD Deluxe Edition) - 2015 (Reprise Records EU), FLAC (image+.cue), lossless

 Статистика раздачи 
Размер: 1.5 ГБ   |  Зарегистрирован: 13 май 2015, 09:43   |   .torrent скачан: 11 раз
Сидеров: 52  [ 0 байт/сек ]     Личеров: 15  [ 0 байт/сек ]  
  
Аватара пользователя
Главный редактор
Главный редактор
Автор темы
Раздал: 10.09 ТБ
Скачал: 1.76 ТБ
Ратио: 6.147
Сообщения: 3349
Стаж: 6 лет 7 месяцев 3 дня
Откуда: Санкт-Петербург

Eric Clapton - Forever Man

3CD Deluxe Edition


Оригинальное название: Eric Clapton - Forever Man
Страна: EU
Производитель Диска - Лейбл: Reprise Records / 9362 49278 9
Жанр: Rock, Blues, Blues Rock
Дата выхода: 2015
Формат аудио: FLAC
Исполнитель: Eric Clapton
Тип рипа: image+.cue
Битрэйт: lossless
Продолжительность: 03:48:59
Источник (релизер): Суслик
Наличие сканов в содержимом раздачи: да
#7701. Gotta Get Over 04:36
02. I've Got A Rock 'N' Roll Heart 03:14
03. Run Back To Your Side 05:16
04. Tears In Heaven 04:32
05. Call Me The Breeze 03:04
06. Forever Man 03:12
07. Believe In Life 05:05
08. Bad Love 05:09
09. My Father's Eyes 05:23
10. Anyway The Wind Blows (With J.J.Cale) 03:56
11. Travelin' Alone 03:55
12. Change The World 03:54
13. Behind The Mask 04:47
14. It's In The Way That You Use It 04:12
15. Pretending 04:42
16. Riding With The King (With B.B.King) 04:23
17. Circus 04:09
18. Revolution 04:00
Код: Выделить всё
Exact Audio Copy V1.0 beta 6 from 9. April 2015

EAC extraction logfile from 9. May 2015, 11:09

Eric Clapton / Forever Man (CD1)

Used drive  : hp      CDDVDW SH-216DB   Adapter: 1  ID: 0

Read mode               : Secure
Utilize accurate stream : Yes
Defeat audio cache      : Yes
Make use of C2 pointers : No

Read offset correction                      : 6
Overread into Lead-In and Lead-Out          : No
Fill up missing offset samples with silence : Yes
Delete leading and trailing silent blocks   : No
Null samples used in CRC calculations       : Yes
Used interface                              : Native Win32 interface for Win NT & 2000

Used output format : Internal WAV Routines
Sample format      : 44.100 Hz; 16 Bit; Stereo

TOC of the extracted CD

     Track |   Start  |  Length  | Start sector | End sector
    ---------------------------------------------------------
        1  |  0:00.00 |  4:36.17 |         0    |    20716
        2  |  4:36.17 |  3:14.59 |     20717    |    35325
        3  |  7:51.01 |  5:16.64 |     35326    |    59089
        4  | 13:07.65 |  4:31.73 |     59090    |    79487
        5  | 17:39.63 |  3:04.67 |     79488    |    93354
        6  | 20:44.55 |  3:12.24 |     93355    |   107778
        7  | 23:57.04 |  5:05.47 |    107779    |   130700
        8  | 29:02.51 |  5:09.15 |    130701    |   153890
        9  | 34:11.66 |  5:23.04 |    153891    |   178119
       10  | 39:34.70 |  3:56.21 |    178120    |   195840
       11  | 43:31.16 |  3:55.11 |    195841    |   213476
       12  | 47:26.27 |  3:54.61 |    213477    |   231087
       13  | 51:21.13 |  4:47.45 |    231088    |   252657
       14  | 56:08.58 |  4:12.48 |    252658    |   271605
       15  | 60:21.31 |  4:42.47 |    271606    |   292802
       16  | 65:04.03 |  4:23.22 |    292803    |   312549
       17  | 69:27.25 |  4:09.07 |    312550    |   331231
       18  | 73:36.32 |  4:00.43 |    331232    |   349274

Range status and errors

Selected range

     Filename E:\POST\Eric Clapton - Forever Man (EAC)\CD1\Eric Clapton - Forever Man (CD1).wav

     Peak level 100.0 %
     Extraction speed 8.0 X
     Range quality 100.0 %
     Test CRC 3CEA1AA4
     Copy CRC 3CEA1AA4
     Copy OK

No errors occurred

AccurateRip summary

Track  1  not present in database
Track  2  not present in database
Track  3  not present in database
Track  4  not present in database
Track  5  not present in database
Track  6  not present in database
Track  7  not present in database
Track  8  not present in database
Track  9  not present in database
Track 10  not present in database
Track 11  not present in database
Track 12  not present in database
Track 13  not present in database
Track 14  not present in database
Track 15  not present in database
Track 16  not present in database
Track 17  not present in database
Track 18  not present in database

None of the tracks are present in the AccurateRip database

End of status report
Код: Выделить всё
REM GENRE "Rock"
REM DATE 2015
REM DISCID 0E123112
REM COMMENT "ExactAudioCopy v1.0b6"
PERFORMER "Eric Clapton"
TITLE "Forever Man (CD1)"
FILE "Eric Clapton - Forever Man (CD1).flac" WAVE
  TRACK 01 AUDIO
    TITLE "Gotta Get Over"
    PERFORMER "Eric Clapton"
    INDEX 01 00:00:00
  TRACK 02 AUDIO
    TITLE "I’ve Got a Rock ’n’ Roll Heart"
    PERFORMER "Eric Clapton"
    INDEX 01 04:36:17
  TRACK 03 AUDIO
    TITLE "Run Back to Your Side"
    PERFORMER "Eric Clapton"
    INDEX 01 07:51:01
  TRACK 04 AUDIO
    TITLE "Tears in Heaven"
    PERFORMER "Eric Clapton"
    INDEX 01 13:07:65
  TRACK 05 AUDIO
    TITLE "Call Me the Breeze"
    PERFORMER "Eric Clapton"
    INDEX 01 17:39:63
  TRACK 06 AUDIO
    TITLE "Forever Man"
    PERFORMER "Eric Clapton"
    INDEX 01 20:44:55
  TRACK 07 AUDIO
    TITLE "Believe in Life"
    PERFORMER "Eric Clapton"
    INDEX 01 23:57:04
  TRACK 08 AUDIO
    TITLE "Bad Love"
    PERFORMER "Eric Clapton"
    INDEX 01 29:02:51
  TRACK 09 AUDIO
    TITLE "My Father’s Eyes"
    PERFORMER "Eric Clapton"
    INDEX 01 34:11:66
  TRACK 10 AUDIO
    TITLE "Anyway the Wind Blows"
    PERFORMER "Eric Clapton with J.J. Cale"
    INDEX 01 39:34:70
  TRACK 11 AUDIO
    TITLE "Travelin’ Alone"
    PERFORMER "Eric Clapton"
    INDEX 01 43:31:16
  TRACK 12 AUDIO
    TITLE "Change the World"
    PERFORMER "Eric Clapton"
    INDEX 01 47:26:27
  TRACK 13 AUDIO
    TITLE "Behind the Mask"
    PERFORMER "Eric Clapton"
    INDEX 01 51:21:13
  TRACK 14 AUDIO
    TITLE "It’s in the Way That You Use It"
    PERFORMER "Eric Clapton"
    INDEX 01 56:08:58
  TRACK 15 AUDIO
    TITLE "Pretending"
    PERFORMER "Eric Clapton"
    INDEX 01 60:21:31
  TRACK 16 AUDIO
    TITLE "Riding With the King"
    PERFORMER "Eric Clapton with B.B. King"
    INDEX 01 65:04:03
  TRACK 17 AUDIO
    TITLE "Circus"
    PERFORMER "Eric Clapton"
    INDEX 01 69:27:25
  TRACK 18 AUDIO
    TITLE "Revolution"
    PERFORMER "Eric Clapton"
    INDEX 01 73:36:32
Код: Выделить всё
-----------------------

DON'T MODIFY THIS FILE

-----------------------

PERFORMER: auCDtect Task Manager, ver. 1.5.1RC4 build 1.5.1.5
Copyright (c) 2008-2010 y-soft. All rights reserved
[url=http://y-soft.org]http://y-soft.org[/url]

ANALYZER: auCDtect: CD records authenticity detector, version 0.8.2
Copyright (c) 2004 Oleg Berngardt. All rights reserved.
Copyright (c) 2004 Alexander Djourik. All rights reserved.

FILE: Eric Clapton - Forever Man (CD1).flac
  Size: 555708594 Hash: 481BAB3212AE2085CD399AB0E4556CB2 Accuracy: -m0
  Conclusion: CDDA 100%
  Signature: CE00183BD1260F563CB19F0F2F317DE2573DE567
Код: Выделить всё
[CUETools log; Date: 11.05.2015 17:57:14; Version: 2.1.4]
[CTDB TOCID: yNnzxh.mEiqthg6CSPECOLHDS60-] found.
Track | CTDB Status
  1   | (6/6) Accurately ripped
  2   | (6/6) Accurately ripped
  3   | (6/6) Accurately ripped
  4   | (6/6) Accurately ripped
  5   | (6/6) Accurately ripped
  6   | (6/6) Accurately ripped
  7   | (6/6) Accurately ripped
  8   | (6/6) Accurately ripped
  9   | (6/6) Accurately ripped
 10   | (6/6) Accurately ripped
 11   | (6/6) Accurately ripped
 12   | (6/6) Accurately ripped
 13   | (6/6) Accurately ripped
 14   | (6/6) Accurately ripped
 15   | (6/6) Accurately ripped
 16   | (6/6) Accurately ripped
 17   | (6/6) Accurately ripped
 18   | (6/6) Accurately ripped
[AccurateRip ID: 00327dc5-02a2fb7b-0e123112] disk not present in database.

Track Peak [ CRC32  ] [W/O NULL] [  LOG   ]
 --  100,0 [3CEA1AA4] [95BD266B]   CRC32
 01  100,0 [634570BF] [73A59F60]
 02  100,0 [01462B3A] [8A8ECFD3]
 03   99,9 [C8CA4D41] [9FFA8622]
 04   98,8 [1ECE6E5F] [ACD4B20A]
 05   90,1 [E8178938] [6C9A07EE]
 06  100,0 [695FE534] [C180A2B8]
 07   88,1 [1D5F9F57] [71BEF3D3]
 08   99,9 [EE30B818] [6974F596]
 09   99,9 [8743BF85] [26A1FC31]
 10   78,5 [0F85CAFC] [5D10D838]
 11   99,9 [B22C4CDF] [8C5CF63B]
 12   98,8 [A604854A] [921254A4]
 13   88,6 [1101D337] [4DA94CC4]
 14   93,8 [BBA7FE88] [437741CE]
 15   98,8 [7E26B172] [15316A5C]
 16   88,1 [92033D83] [4803E67F]
 17   87,3 [BD0055DF] [24D3493D]
 18   98,8 [F3385027] [C48210C9]
#7701. Badge (Live) 06:53
02. Sunshine Of Your Love (Live) 08:51
03. White Room (Live) 06:06
04. Wonderful Tonight (Live) 08:59
05. Worried Life Blues (Live) 05:17
06. Cocaine (Live) 05:05
07. Layla (Unplugged) (Live) 04:29
08. Nobody Knows You When You're Down And Out (Unplugged) (Live) 03:50
09. Walkin' Blues (Unplugged) (Live) 03:43
10. Them Changes (With Steve Winwood) (Live) 04:58
11. Presence Of The Lord (With Steve Winwood) (Live) 05:11
12. Hoochie Coochie Man (Live) 04:34
13. Goin' Down Slow (Live) 05:41
14. Over The Rainbow (Live) 05:13
Код: Выделить всё
Exact Audio Copy V1.0 beta 6 from 9. April 2015

EAC extraction logfile from 10. May 2015, 12:39

Eric Clapton / Forever Man (CD2)

Used drive  : hp      CDDVDW SH-216DB   Adapter: 1  ID: 0

Read mode               : Secure
Utilize accurate stream : Yes
Defeat audio cache      : Yes
Make use of C2 pointers : No

Read offset correction                      : 6
Overread into Lead-In and Lead-Out          : No
Fill up missing offset samples with silence : Yes
Delete leading and trailing silent blocks   : No
Null samples used in CRC calculations       : Yes
Used interface                              : Native Win32 interface for Win NT & 2000

Used output format : Internal WAV Routines
Sample format      : 44.100 Hz; 16 Bit; Stereo

TOC of the extracted CD

     Track |   Start  |  Length  | Start sector | End sector
    ---------------------------------------------------------
        1  |  0:00.00 |  6:53.70 |         0    |    31044
        2  |  6:53.70 |  8:51.52 |     31045    |    70921
        3  | 15:45.47 |  6:06.33 |     70922    |    98404
        4  | 21:52.05 |  8:59.05 |     98405    |   138834
        5  | 30:51.10 |  5:17.70 |    138835    |   162679
        6  | 36:09.05 |  5:05.55 |    162680    |   185609
        7  | 41:14.60 |  4:29.67 |    185610    |   205851
        8  | 45:44.52 |  3:50.00 |    205852    |   223101
        9  | 49:34.52 |  3:43.05 |    223102    |   239831
       10  | 53:17.57 |  4:58.58 |    239832    |   262239
       11  | 58:16.40 |  5:11.02 |    262240    |   285566
       12  | 63:27.42 |  4:34.45 |    285567    |   306161
       13  | 68:02.12 |  5:41.20 |    306162    |   331756
       14  | 73:43.32 |  5:13.58 |    331757    |   355289

Range status and errors

Selected range

     Filename E:\POST\Eric Clapton - Forever Man (EAC)\CD2\Eric Clapton - Forever Man (CD2).wav

     Peak level 98.8 %
     Extraction speed 8.1 X
     Range quality 100.0 %
     Test CRC 2D177C31
     Copy CRC 2D177C31
     Copy OK

No errors occurred

AccurateRip summary

Track  1  not present in database
Track  2  not present in database
Track  3  not present in database
Track  4  not present in database
Track  5  not present in database
Track  6  not present in database
Track  7  not present in database
Track  8  not present in database
Track  9  not present in database
Track 10  not present in database
Track 11  not present in database
Track 12  not present in database
Track 13  not present in database
Track 14  not present in database

None of the tracks are present in the AccurateRip database

End of status report
Код: Выделить всё
REM GENRE "Rock"
REM DATE 2015
REM DISCID E412810E
REM COMMENT "ExactAudioCopy v1.0b6"
PERFORMER "Eric Clapton"
TITLE "Forever Man (CD2)"
FILE "Eric Clapton - Forever Man (CD2).flac" WAVE
  TRACK 01 AUDIO
    TITLE "Badge (live)"
    PERFORMER "Eric Clapton"
    INDEX 01 00:00:00
  TRACK 02 AUDIO
    TITLE "Sunshine of Your Love (live)"
    PERFORMER "Eric Clapton"
    INDEX 01 06:53:70
  TRACK 03 AUDIO
    TITLE "White Room (live)"
    PERFORMER "Eric Clapton"
    INDEX 01 15:45:47
  TRACK 04 AUDIO
    TITLE "Wonderful Tonight (live)"
    PERFORMER "Eric Clapton"
    INDEX 01 21:52:05
  TRACK 05 AUDIO
    TITLE "Worried Life Blues (live)"
    PERFORMER "Eric Clapton"
    INDEX 01 30:51:10
  TRACK 06 AUDIO
    TITLE "Cocaine (live)"
    PERFORMER "Eric Clapton"
    INDEX 01 36:09:05
  TRACK 07 AUDIO
    TITLE "Layla (live – unplugged)"
    PERFORMER "Eric Clapton"
    INDEX 01 41:14:60
  TRACK 08 AUDIO
    TITLE "Nobody Knows You When You’re Down and Out (live – unplugged)"
    PERFORMER "Eric Clapton"
    INDEX 01 45:44:52
  TRACK 09 AUDIO
    TITLE "Walkin’ Blues (live – unplugged)"
    PERFORMER "Eric Clapton"
    INDEX 01 49:34:52
  TRACK 10 AUDIO
    TITLE "Them Changes (live)"
    PERFORMER "Eric Clapton with Steve Winwood"
    INDEX 01 53:17:57
  TRACK 11 AUDIO
    TITLE "Presence of the Lord (live)"
    PERFORMER "Eric Clapton with Steve Winwood"
    INDEX 01 58:16:40
  TRACK 12 AUDIO
    TITLE "Hoochie Coochie Man (live)"
    PERFORMER "Eric Clapton"
    INDEX 01 63:27:42
  TRACK 13 AUDIO
    TITLE "Goin’ Down Slow (live)"
    PERFORMER "Eric Clapton"
    INDEX 01 68:02:12
  TRACK 14 AUDIO
    TITLE "Over the Rainbow (live)"
    PERFORMER "Eric Clapton"
    INDEX 01 73:43:32
Код: Выделить всё
-----------------------

DON'T MODIFY THIS FILE

-----------------------

PERFORMER: auCDtect Task Manager, ver. 1.5.1RC4 build 1.5.1.5
Copyright (c) 2008-2010 y-soft. All rights reserved
[url=http://y-soft.org]http://y-soft.org[/url]

ANALYZER: auCDtect: CD records authenticity detector, version 0.8.2
Copyright (c) 2004 Oleg Berngardt. All rights reserved.
Copyright (c) 2004 Alexander Djourik. All rights reserved.

FILE: Eric Clapton - Forever Man (CD2).flac
  Size: 540660203 Hash: 7B599C7A32828F68E97D334D1B31FB17 Accuracy: -m0
  Conclusion: CDDA 100%
  Signature: 0E52C6108D8D2775649FA01437062D369E0A79AF
Код: Выделить всё
[CUETools log; Date: 11.05.2015 18:16:16; Version: 2.1.4]
[CTDB TOCID: AhL23bNJZyJl39alQKprq_zxTzE-] found.
Track | CTDB Status
  1   | (8/8) Accurately ripped
  2   | (8/8) Accurately ripped
  3   | (8/8) Accurately ripped
  4   | (8/8) Accurately ripped
  5   | (8/8) Accurately ripped
  6   | (8/8) Accurately ripped
  7   | (8/8) Accurately ripped
  8   | (8/8) Accurately ripped
  9   | (8/8) Accurately ripped
 10   | (8/8) Accurately ripped
 11   | (8/8) Accurately ripped
 12   | (8/8) Accurately ripped
 13   | (8/8) Accurately ripped
 14   | (8/8) Accurately ripped
[AccurateRip ID: 002c3593-01c919ca-e412810e] disk not present in database.

Track Peak [ CRC32  ] [W/O NULL] [  LOG   ]
 --   98,8 [2D177C31] [EEF97645]   CRC32
 01   98,8 [74A927AD] [1C016CA3]
 02   97,7 [AAC21CA6] [985560B2]
 03   97,7 [CEC0F082] [24D84E40]
 04   97,7 [866976B9] [B7A67A61]
 05   97,3 [03304A25] [AA10EC54]
 06   98,2 [A09D6209] [727D12F8]
 07   97,7 [9932F93D] [5CC8A38E]
 08   97,7 [9C173519] [E39B9CEA]
 09   97,7 [F8567ED9] [DFD2419A]
 10   97,7 [32741A67] [CAD13918]
 11   97,7 [746358A0] [D232EE93]
 12   98,8 [4BC0BD2E] [A95EA728]
 13   97,6 [F98F5479] [B36D2C2F]
 14   98,8 [7A7390B2] [A9030373]
#7701. Before You Accuse Me 03:57
02. Last Fair Deal Gone Down 02:34
03. Hold On I'm Coming (With B.B.King) 06:19
04. Terraplane Blues 03:36
05. It Hurts Me Too 03:18
06. Little Queen Of Spades 04:58
07. Third Degree 05:10
08. Motherless Child 02:56
09. Sportin' Life Blues (With J.J.Cale) 03:31
10. Ramblin' On My Mind 02:43
11. Stop Breakin' Down Blues 02:30
12. Everybody Oughta Make A Change 03:17
13. Sweet Home Chicago 05:16
14. If I Had Possession Over Judgement Day 03:27
15. Hard Time Blues 03:42
16. Got You On My Mind 04:30
17. I'm Tore Down 03:03
18. Milkcow's Calf Blues 03:49
19. Key To The Highway (With B.B.King) 03:39
Код: Выделить всё
Exact Audio Copy V1.0 beta 6 from 9. April 2015

EAC extraction logfile from 10. May 2015, 13:36

Eric Clapton / Forever Man (CD3)

Used drive  : hp      CDDVDW SH-216DB   Adapter: 1  ID: 0

Read mode               : Secure
Utilize accurate stream : Yes
Defeat audio cache      : Yes
Make use of C2 pointers : No

Read offset correction                      : 6
Overread into Lead-In and Lead-Out          : No
Fill up missing offset samples with silence : Yes
Delete leading and trailing silent blocks   : No
Null samples used in CRC calculations       : Yes
Used interface                              : Native Win32 interface for Win NT & 2000

Used output format : Internal WAV Routines
Sample format      : 44.100 Hz; 16 Bit; Stereo

TOC of the extracted CD

     Track |   Start  |  Length  | Start sector | End sector
    ---------------------------------------------------------
        1  |  0:00.00 |  3:57.30 |         0    |    17804
        2  |  3:57.30 |  2:34.69 |     17805    |    29423
        3  |  6:32.24 |  6:19.17 |     29424    |    57865
        4  | 12:51.41 |  3:36.24 |     57866    |    74089
        5  | 16:27.65 |  3:18.67 |     74090    |    89006
        6  | 19:46.57 |  4:58.43 |     89007    |   111399
        7  | 24:45.25 |  5:10.60 |    111400    |   134709
        8  | 29:56.10 |  2:56.68 |    134710    |   147977
        9  | 32:53.03 |  3:31.22 |    147978    |   163824
       10  | 36:24.25 |  2:43.63 |    163825    |   176112
       11  | 39:08.13 |  2:30.33 |    176113    |   187395
       12  | 41:38.46 |  3:17.70 |    187396    |   202240
       13  | 44:56.41 |  5:16.61 |    202241    |   226001
       14  | 50:13.27 |  3:27.48 |    226002    |   241574
       15  | 53:41.00 |  3:42.21 |    241575    |   258245
       16  | 57:23.21 |  4:30.14 |    258246    |   278509
       17  | 61:53.35 |  3:03.28 |    278510    |   292262
       18  | 64:56.63 |  3:49.22 |    292263    |   309459
       19  | 68:46.10 |  3:39.61 |    309460    |   325945

Range status and errors

Selected range

     Filename E:\POST\Eric Clapton - Forever Man (EAC)\CD3\Eric Clapton - Forever Man (CD3).wav

     Peak level 100.0 %
     Extraction speed 8.1 X
     Range quality 100.0 %
     Test CRC E91AFB57
     Copy CRC E91AFB57
     Copy OK

No errors occurred

AccurateRip summary

Track  1  not present in database
Track  2  not present in database
Track  3  not present in database
Track  4  not present in database
Track  5  not present in database
Track  6  not present in database
Track  7  not present in database
Track  8  not present in database
Track  9  not present in database
Track 10  not present in database
Track 11  not present in database
Track 12  not present in database
Track 13  not present in database
Track 14  not present in database
Track 15  not present in database
Track 16  not present in database
Track 17  not present in database
Track 18  not present in database
Track 19  not present in database

None of the tracks are present in the AccurateRip database

End of status report
Код: Выделить всё
REM GENRE "Blues"
REM DATE 2015
REM DISCID 3A10F913
REM COMMENT "ExactAudioCopy v1.0b6"
PERFORMER "Eric Clapton"
TITLE "Forever Man (CD3)"
FILE "Eric Clapton - Forever Man (CD3).flac" WAVE
  TRACK 01 AUDIO
    TITLE "Before You Accuse Me"
    PERFORMER "Eric Clapton"
    INDEX 01 00:00:00
  TRACK 02 AUDIO
    TITLE "Last Fair Deal Gone Down"
    PERFORMER "Eric Clapton"
    INDEX 01 03:57:30
  TRACK 03 AUDIO
    TITLE "Hold On I’m Coming"
    PERFORMER "Eric Clapton with B.B. King"
    INDEX 00 06:32:23
    INDEX 01 06:32:24
  TRACK 04 AUDIO
    TITLE "Terraplane Blues"
    PERFORMER "Eric Clapton"
    INDEX 00 12:51:40
    INDEX 01 12:51:41
  TRACK 05 AUDIO
    TITLE "It Hurts Me Too"
    PERFORMER "Eric Clapton"
    INDEX 00 16:27:64
    INDEX 01 16:27:65
  TRACK 06 AUDIO
    TITLE "Little Queen of Spades"
    PERFORMER "Eric Clapton"
    INDEX 00 19:46:56
    INDEX 01 19:46:57
  TRACK 07 AUDIO
    TITLE "Third Degree"
    PERFORMER "Eric Clapton"
    INDEX 00 24:45:24
    INDEX 01 24:45:25
  TRACK 08 AUDIO
    TITLE "Motherless Child"
    PERFORMER "Eric Clapton"
    INDEX 00 29:56:09
    INDEX 01 29:56:10
  TRACK 09 AUDIO
    TITLE "Sportin’ Life Blues"
    PERFORMER "Eric Clapton with J.J. Cale"
    INDEX 00 32:53:02
    INDEX 01 32:53:03
  TRACK 10 AUDIO
    TITLE "Ramblin’ on My Mind"
    PERFORMER "Eric Clapton"
    INDEX 01 36:24:25
  TRACK 11 AUDIO
    TITLE "Stop Breakin’ Down Blues"
    PERFORMER "Eric Clapton"
    INDEX 00 39:08:12
    INDEX 01 39:08:13
  TRACK 12 AUDIO
    TITLE "Everybody Oughta Make a Change"
    PERFORMER "Eric Clapton"
    INDEX 00 41:38:45
    INDEX 01 41:38:46
  TRACK 13 AUDIO
    TITLE "Sweet Home Chicago"
    PERFORMER "Eric Clapton"
    INDEX 00 44:56:40
    INDEX 01 44:56:41
  TRACK 14 AUDIO
    TITLE "If I Had Possession Over Judgement Day"
    PERFORMER "Eric Clapton"
    INDEX 00 50:13:26
    INDEX 01 50:13:27
  TRACK 15 AUDIO
    TITLE "Hard Time Blues"
    PERFORMER "Eric Clapton"
    INDEX 00 53:40:74
    INDEX 01 53:41:00
  TRACK 16 AUDIO
    TITLE "Got You on My Mind"
    PERFORMER "Eric Clapton"
    INDEX 00 57:23:20
    INDEX 01 57:23:21
  TRACK 17 AUDIO
    TITLE "I’m Tore Down"
    PERFORMER "Eric Clapton"
    INDEX 00 61:53:34
    INDEX 01 61:53:35
  TRACK 18 AUDIO
    TITLE "Milkcow’s Calf Blues"
    PERFORMER "Eric Clapton"
    INDEX 00 64:56:62
    INDEX 01 64:56:63
  TRACK 19 AUDIO
    TITLE "Key to the Highway"
    PERFORMER "Eric Clapton with B.B. King"
    INDEX 00 68:46:09
    INDEX 01 68:46:10
Код: Выделить всё
-----------------------

DON'T MODIFY THIS FILE

-----------------------

PERFORMER: auCDtect Task Manager, ver. 1.5.1RC4 build 1.5.1.5
Copyright (c) 2008-2010 y-soft. All rights reserved
[url=http://y-soft.org]http://y-soft.org[/url]

ANALYZER: auCDtect: CD records authenticity detector, version 0.8.2
Copyright (c) 2004 Oleg Berngardt. All rights reserved.
Copyright (c) 2004 Alexander Djourik. All rights reserved.

FILE: Eric Clapton - Forever Man (CD3).flac
  Size: 509976438 Hash: 04CEB6AA8A8C37F3414703637F78477A Accuracy: -m0
  Conclusion: CDDA 99%
  Signature: 202A8DA97910EED9041D9360B3490AD81CAAFFE6
Код: Выделить всё
[CUETools log; Date: 11.05.2015 18:18:44; Version: 2.1.4]
[CTDB TOCID: e_R02gNyB0.bTKoXwBkS6GAwLHc-] found.
Track | CTDB Status
  1   | (6/6) Accurately ripped
  2   | (6/6) Accurately ripped
  3   | (6/6) Accurately ripped
  4   | (6/6) Accurately ripped
  5   | (6/6) Accurately ripped
  6   | (6/6) Accurately ripped
  7   | (6/6) Accurately ripped
  8   | (6/6) Accurately ripped
  9   | (6/6) Accurately ripped
 10   | (6/6) Accurately ripped
 11   | (6/6) Accurately ripped
 12   | (6/6) Accurately ripped
 13   | (6/6) Accurately ripped
 14   | (6/6) Accurately ripped
 15   | (6/6) Accurately ripped
 16   | (6/6) Accurately ripped
 17   | (6/6) Accurately ripped
 18   | (6/6) Accurately ripped
 19   | (6/6) Accurately ripped
[AccurateRip ID: 0032b7d1-02c133d8-3a10f913] disk not present in database.

Track Peak [ CRC32  ] [W/O NULL] [  LOG   ]
 --  100,0 [E91AFB57] [13CA93E8]   CRC32
 01   99,9 [18E8A0D2] [748BBAFA]
 02   88,1 [FAF3A798] [4A15A2DD]
 03   99,9 [0EA5B026] [93D1B403]
 04   88,1 [A234BC69] [623ADBBC]
 05   99,9 [D290C762] [D1B9CE01]
 06   88,1 [12F49584] [8D227406]
 07  100,0 [63111D82] [51892A57]
 08  100,0 [14E65A27] [0A930717]
 09  100,0 [A4B33313] [BD7A2A70]
 10   99,9 [F0C837E5] [FE0BCAE0]
 11   98,9 [448FA60A] [1B1ED3B9]
 12  100,0 [BE2E0E7A] [1459FDAA]
 13   73,9 [7776E2FC] [8CE7CDC8]
 14   87,9 [C806DB2A] [2688482B]
 15   99,9 [8D452D3A] [4341A6BF]
 16   88,1 [5D8908BB] [1032F7F4]
 17   99,9 [E97F8DF2] [A3D0084A]
 18   89,1 [ADD0D657] [9F50C033]
 19   99,9 [5C44CAF2] [DC0264B6]
Legendary songwriter, vocalist, guitarist and 19-time Grammy Award-winner Eric Clapton will release a brand-new ‘Best Of' compilation, entitled Forever Man, via Reprise Records on April 28th in the U.S. Featuring 51 tracks over three CDs, Forever Man spans three decades of Clapton's Reprise Records years and features classic studio tracks and a Blues-themed disc.
The collection traces much of Clapton's career featuring the Grammy Award-winning tracks "Change The World", "Tears In Heaven", "Bad Love" and including materials from Eric's Grammy Award-winning albums From The Cradle and Unplugged. Guest performers include B.B. King and J.J. Cale.
The release of Forever Man coincides with an upcoming tour, which includes nine concert dates in celebration of his 70th birthday on March 30th. The shows will take place at New York City's famed Madison Square Garden on May 1st and 2nd and at London's Royal Albert Hall on May 14th, 15th, 17th, 18th, 20th, 21st, and 23rd. The shows will feature Clapton, accompanied by his band members Paul Carrack, Steve Gadd, Nathan East, Chris Stainton, Sharon White, and Michelle John, with opening support act Andy Fairweather Low and the Low Riders. Forever Man is available for pre-order beginning today, Mar 17th, and will be available in multiple configurations: a 3-CD, a vinyl 2-LP set and digital downloads. The package also comes with liner notes written by noted rock journalist and author Malcolm Dome.
"Eric Clapton - Forever Man" everywhere May 11th
With 51 tracks spanning three decades of Clapton’s solo career on Reprise Records, Forever Man is a new compilation of classic studio tracks, live tracks, and a bonus Blues-themed disc. Featuring the Grammy Award-winning tracks "Change The World," "Tears In Heaven," and "Bad Love" and including material from Eric’s Grammy Award-winning albums From The Cradle and Unplugged.
Available for pre-order in multiple configurations: 3-CD set, 2-CD set, vinyl 2-LP set, and digital.

http://www.ericclapton.com/foreverman/row
   
Торрент: Зарегистрирован [13 май 2015, 09:43] Jazz & Blues & Country Скачать торрент Магнет ссылка
Скачать торрент
[ Размер 17.42 КБ / Просмотров 334 ]
Статус:
Проверен
 
.torrent скачан: 11 раз
Размер: 1.5 ГБ (1 612 509 753 байт)
   
 
 
Цитата

Вернуться в Jazz & Blues & Country

Кто сейчас на конференции

Сейчас эту тему просматривают: нет зарегистрированных пользователей и гости: 1