Annie Lennox - An Evening of Nostalgia with Annie Lennox [2015, Pop, BDRip 1080p]

 Статистика раздачи 
Размер: 5.46 ГБ   |  Зарегистрирован: 11 май 2015, 19:05   |   .torrent скачан: 6 раз
Сидеров: 106  [ 0 байт/сек ]     Личеров: 14  [ 0 байт/сек ]  
  
Аватара пользователя
Главный редактор
Главный редактор
Автор темы
Раздал: 10.09 ТБ
Скачал: 1.76 ТБ
Ратио: 6.147
Сообщения: 3365
Стаж: 7 лет 30 дней
Откуда: Санкт-Петербург

Annie Lennox ★ An Evening of Nostalgia with Annie Lennox


Оригинальное название: An Evening of Nostalgia with Annie Lennox
Дата выхода: 2015
Жанр: Pop
Исполнитель: Annie Lennox
Страна: США, Blue Note Records
Продолжительность: 01:07:42
Качество HD: BDRip 1080p
Контейнер: MKV
Формат аудио: DTS
Формат видео: H.264
Видео: MPEG4 Video (H264) 1920x1080 23.976fps 10.0 Mbps
Аудио: Английский: DTS 48000Hz 6ch 1536kbps
Присутствует навигация по главам
О музыке: Энни Леннокс (англ. Annie Lennox родилась 25 декабря 1954, Абердин, Шотландия) — шотландская певица. За свою карьеру она была удостоена премий «Оскар», «Золотой глобус», четырех «Грэмми» и рекордных восьми «BRIT Awards». Annie Lennox достигла наибольшего успеха в начале 1990-х годов, когда начала сольную карьеру, выпустив в 1992 году альбом «Diva». Всего выпустила пять студийных альбомов и несколько сборников. Annie Lennox была включена в список «100 величайших исполнителей всех времён по версии Rolling Stone». Ей был присвоен титул «Самого успешного музыканта Великобритании» благодаря ее коммерческому успеху. Annie Lennox является одним из самых продаваемых музыкантов с продажами более 80 миллионов записей по всему миру. Annie Lennox активно занимается благотворительностью (борьбой за права женщин и лесбиянок, за сохранение лесов, против эпидемии ВИЧ, нищеты, и т. д.). Она является послом доброй воли ЮНЭЙДС. В 2011 году была награждена орденом Британской империи.
01. Intro,
02. Memphis In June
03. Georgia On My Mind
04. I Put A Spell On You
05. Summertime
06. I Cover The Waterfront
07. Strange Fruit
08. God Bless The Child
09. You Belong To Me
10. September In The Rain
11. I Can Dream, Can’t I?
12. The Nearness Of You
13. Mood Indigo
14. Here Comes The Rain Again
15. No More I Love You’s
16. Why
17. Sweet Dreams (Are Made Of This)

Код: Выделить всё
General
Unique ID                      : 199827023538906795575780541606752288832 (0x965548EAD309340392D7ED39215E0040)
Complete name                  : Annie Lennox - An Evening of Nostalgia with Annie Lennox.mkv
Format                         : Matroska
Format version                 : Version 4 / Version 2
File size                      : 5.46 GiB
Duration                       : 1h 7mn
Overall bit rate               : 11.6 Mbps
Encoded date                   : UTC 2015-05-02 19:45:17
Writing application            : mkvmerge v7.8.0 ('River Man') 64bit built on Mar 27 2015 16:31:37
Writing library                : libebml v1.3.1 + libmatroska v1.4.2
DURATION                       : 01:07:42.006000000
NUMBER_OF_FRAMES               : 380813
NUMBER_OF_BYTES                : 766195756
_STATISTICS_WRITING_APP        : mkvmerge v7.8.0 ('River Man') 64bit built on Mar 27 2015 16:31:37
_STATISTICS_WRITING_DATE_UTC   : 2015-05-02 19:45:17
_STATISTICS_TAGS               : BPS DURATION NUMBER_OF_FRAMES NUMBER_OF_BYTES
Video
ID                             : 1
Format                         : AVC
Format/Info                    : Advanced Video Codec
Format profile                 : High@L4.1
Format settings, CABAC         : Yes
Format settings, ReFrames      : 4 frames
Codec ID                       : V_MPEG4/ISO/AVC
Duration                       : 1h 7mn
Bit rate                       : 10.0 Mbps
Width                          : 1 920 pixels
Height                         : 1 080 pixels
Display aspect ratio           : 16:9
Frame rate mode                : Constant
Frame rate                     : 23.976 fps
Color space                    : YUV
Chroma subsampling             : 4:2:0
Bit depth                      : 8 bits
Scan type                      : Progressive
Bits/(Pixel*Frame)             : 0.202
Stream size                    : 4.64 GiB (85%)
Writing library                : x264 core 146 r2538 121396c
Encoding settings              : cabac=1 / ref=4 / deblock=1:-1:-1 / analyse=0x3:0x113 / me=umh / subme=8 / psy=1 / psy_rd=1.00:0.15 / mixed_ref=1 / me_range=16 / chroma_me=1 / trellis=1 / 8x8dct=1 / cqm=0 / deadzone=21,11 / fast_pskip=0 / chroma_qp_offset=-3 / threads=6 / lookahead_threads=1 / sliced_threads=0 / nr=0 / decimate=1 / interlaced=0 / bluray_compat=0 / constrained_intra=0 / bframes=3 / b_pyramid=2 / b_adapt=2 / b_bias=0 / direct=3 / weightb=1 / open_gop=0 / weightp=2 / keyint=250 / keyint_min=23 / scenecut=40 / intra_refresh=0 / rc_lookahead=50 / rc=2pass / mbtree=1 / bitrate=10041 / ratetol=1.0 / qcomp=0.60 / qpmin=0 / qpmax=69 / qpstep=4 / cplxblur=20.0 / qblur=0.5 / ip_ratio=1.40 / aq=1:1.00
Default                        : Yes
Forced                         : No
DURATION                       : 01:07:42.017000000
NUMBER_OF_FRAMES               : 97391
NUMBER_OF_BYTES                : 5098242185
_STATISTICS_WRITING_APP        : mkvmerge v7.8.0 ('River Man') 64bit built on Mar 27 2015 16:31:37
_STATISTICS_WRITING_DATE_UTC   : 2015-05-02 19:45:17
_STATISTICS_TAGS               : BPS DURATION NUMBER_OF_FRAMES NUMBER_OF_BYTES
Audio
ID                             : 2
Format                         : DTS
Format/Info                    : Digital Theater Systems
Mode                           : 16
Format settings, Endianness    : Big
Codec ID                       : A_DTS
Duration                       : 1h 7mn
Bit rate mode                  : Constant
Bit rate                       : 1 509 Kbps
Channel(s)                     : 6 channels
Channel positions              : Front: L C R, Side: L R, LFE
Sampling rate                  : 48.0 KHz
Bit depth                      : 24 bits
Compression mode               : Lossy
Stream size                    : 731 MiB (13%)
Language                       : English
Default                        : Yes
Forced                         : No
Menu
00:00:00.000                   : en:00:00:00.000
00:00:34.451                   : en:00:00:34.451
00:03:59.739                   : en:00:03:59.739
00:08:32.262                   : en:00:08:32.262
00:12:38.299                   : en:00:12:38.299
00:17:46.816                   : en:00:17:46.816
00:21:36.378                   : en:00:21:36.378
00:25:45.836                   : en:00:25:45.836
00:29:52.374                   : en:00:29:52.374
00:33:06.276                   : en:00:33:06.276
00:36:26.559                   : en:00:36:26.559
00:39:43.923                   : en:00:39:43.923
00:42:38.347                   : en:00:42:38.347
00:51:19.451                   : en:00:51:19.451
00:54:14.334                   : en:00:54:14.334
00:58:29.256                   : en:00:58:29.256
01:03:11.121                   : en:01:03:11.121
01:06:24.189                   : en:01:06:24.189
   
Торрент: Зарегистрирован [11 май 2015, 19:05] Скачать торрент Магнет ссылка
Скачать торрент
[ Размер 14.25 КБ / Просмотров 413 ]
Статус:
Проверен
 
.torrent скачан: 6 раз
Размер: 5.46 ГБ (5 865 675 880 байт)
   
 
 
Цитата

Вернуться в World Pop

Кто сейчас на конференции

Сейчас эту тему просматривают: нет зарегистрированных пользователей и гости: 1