Annie Lennox - An Evening of Nostalgia with Annie Lennox [2015, Pop, Blu-ray]

 Статистика раздачи 
Размер: 20.96 ГБ   |  Зарегистрирован: 11 май 2015, 18:51   |   .torrent скачан: 1 раз
Сидеров: 102  [ 0 байт/сек ]     Личеров: 5  [ 0 байт/сек ]  
  
Аватара пользователя
Главный редактор
Главный редактор
Автор темы
Раздал: 10.09 ТБ
Скачал: 1.76 ТБ
Ратио: 6.147
Сообщения: 3357
Стаж: 6 лет 9 месяцев 2 дня
Откуда: Санкт-Петербург

Annie Lennox ★ An Evening of Nostalgia with Annie Lennox


Оригинальное название: An Evening of Nostalgia with Annie Lennox
Дата выхода: 2015
Жанр: Pop
Исполнитель: Annie Lennox
Страна: США, Blue Note Records
Продолжительность: 01:07:42
Качество HD: Blu-ray
Контейнер: BDMV
Формат аудио: DTS, PCM
Формат видео: H.264
Видео: MPEG-4 AVC Video / 34891 kbps / 1080p / 23,976 fps / 16:9 / High Profile 4.1
Аудио 1: Английский: DTS-HD Master Audio / 5.1 / 48 kHz / 4611 kbps / 24-bit
Аудио 2: Английский: LPCM Audio / 2.0 / 48 kHz / 2304 kbps / 24-bit
О музыке: Энни Леннокс (англ. Annie Lennox родилась 25 декабря 1954, Абердин, Шотландия) — шотландская певица. За свою карьеру она была удостоена премий «Оскар», «Золотой глобус», четырех «Грэмми» и рекордных восьми «BRIT Awards». Annie Lennox достигла наибольшего успеха в начале 1990-х годов, когда начала сольную карьеру, выпустив в 1992 году альбом «Diva». Всего выпустила пять студийных альбомов и несколько сборников. Annie Lennox была включена в список «100 величайших исполнителей всех времён по версии Rolling Stone». Ей был присвоен титул «Самого успешного музыканта Великобритании» благодаря ее коммерческому успеху. Annie Lennox является одним из самых продаваемых музыкантов с продажами более 80 миллионов записей по всему миру. Annie Lennox активно занимается благотворительностью (борьбой за права женщин и лесбиянок, за сохранение лесов, против эпидемии ВИЧ, нищеты, и т. д.). Она является послом доброй воли ЮНЭЙДС. В 2011 году была награждена орденом Британской империи.
01. Intro,
02. Memphis In June
03. Georgia On My Mind
04. I Put A Spell On You
05. Summertime
06. I Cover The Waterfront
07. Strange Fruit
08. God Bless The Child
09. You Belong To Me
10. September In The Rain
11. I Can Dream, Can’t I?
12. The Nearness Of You
13. Mood Indigo
14. Here Comes The Rain Again
15. No More I Love You’s
16. Why
17. Sweet Dreams (Are Made Of This)

Код: Выделить всё
Disc Title:     Annie Lennox • An Evening of Nostalgia with Annie Lennox Blu-ray
Disc Size:      22 509 932 106 bytes
Protection:     AACS
BD-Java:        Yes
BDInfo:         0.5.8
Notes:
BDINFO HOME:
  Cinema Squid
    http://www.cinemasquid.com/blu-ray/tools/bdinfo
INCLUDES FORUMS REPORT FOR:
  AVS Forum Blu-ray Audio and Video Specifications Thread
    http://www.avsforum.com/avs-vb/showthread.php?t=1155731
********************
PLAYLIST: 00000.MPLS
********************
<--- BEGIN FORUMS PASTE --->

Код:
Total   Video
Title                                                           Codec   Length  Movie Size      Disc Size       Bitrate Bitrate Main Audio Track                          Secondary Audio Track
-----                                                           ------  ------- --------------  --------------  ------- ------- ------------------                        ---------------------
00000.MPLS                                                      AVC     1:07:42 22 344 499 200  22 509 932 106  44,01   34,89   LPCM 2.0 2304Kbps (48kHz/24-bit)          DTS-HD Master 5.1 4611Kbps (48kHz/24-bit)
Код:
DISC INFO:
Disc Title:     Annie Lennox • An Evening of Nostalgia with Annie Lennox Blu-ray
Disc Size:      22 509 932 106 bytes
Protection:     AACS
BD-Java:        Yes
BDInfo:         0.5.8
PLAYLIST REPORT:
Name:                   00000.MPLS
Length:                 1:07:42.016 (h:m:s.ms)
Size:                   22 344 499 200 bytes
Total Bitrate:          44,01 Mbps
VIDEO:
Codec                   Bitrate             Description
-----                   -------             -----------
MPEG-4 AVC Video        34891 kbps          1080p / 23,976 fps / 16:9 / High Profile 4.1
AUDIO:
Codec                           Language        Bitrate         Description
-----                           --------        -------         -----------
LPCM Audio                      English         2304 kbps       2.0 / 48 kHz / 2304 kbps / 24-bit
DTS-HD Master Audio             English         4611 kbps       5.1 / 48 kHz / 4611 kbps / 24-bit (DTS Core: 5.1 / 48 kHz / 1509 kbps / 24-bit)
FILES:
Name            Time In         Length          Size            Total Bitrate
----            -------         ------          ----            -------------
00000.M2TS      0:00:00.000     1:07:42.016     22 344 499 200  44 007
CHAPTERS:
Number          Time In         Length          Avg Video Rate  Max 1-Sec Rate  Max 1-Sec Time  Max 5-Sec Rate  Max 5-Sec Time  Max 10Sec Rate  Max 10Sec Time  Avg Frame Size  Max Frame Size  Max Frame Time
------          -------         ------          --------------  --------------  --------------  --------------  --------------  --------------  --------------  --------------  --------------  --------------
1               0:00:00.000     1:07:42.016     34 891 kbps     49 882 kbps     00:46:31.121    37 439 kbps     00:28:26.329    36 405 kbps     00:49:47.442    181 909 bytes   826 687 bytes   00:54:36.773
STREAM DIAGNOSTICS:
File            PID             Type            Codec           Language                Seconds                 Bitrate                 Bytes           Packets
----            ---             ----            -----           --------                --------------          --------------          -------------   -----
00000.M2TS      4113 (0x1011)   0x1B            AVC                                     4061,933                34 892                  17 716 127 689  96 340 131
00000.M2TS      4352 (0x1100)   0x80            LPCM            eng (English)           4061,933                2 310                   1 173 098 196   6 499 159
00000.M2TS      4353 (0x1101)   0x86            DTS-HD MA       eng (English)           4061,933                4 611                   2 341 373 640   13 357 786

<---- END FORUMS PASTE ---->
QUICK SUMMARY:
Disc Title: Annie Lennox • An Evening of Nostalgia with Annie Lennox Blu-ray
Disc Size: 22 509 932 106 bytes
Protection: AACS
BD-Java: Yes
Playlist: 00000.MPLS
Size: 22 344 499 200 bytes
Length: 1:07:42.016
Total Bitrate: 44,01 Mbps
Video: MPEG-4 AVC Video / 34891 kbps / 1080p / 23,976 fps / 16:9 / High Profile 4.1
Audio: English / LPCM Audio / 2.0 / 48 kHz / 2304 kbps / 24-bit
Audio: English / DTS-HD Master Audio / 5.1 / 48 kHz / 4611 kbps / 24-bit (DTS Core: 5.1 / 48 kHz / 1509 kbps / 24-bit)
********************
PLAYLIST: 01000.MPLS
********************
<--- BEGIN FORUMS PASTE --->

Код:
Total   Video
Title                                                           Codec   Length  Movie Size      Disc Size       Bitrate Bitrate Main Audio Track                          Secondary Audio Track
-----                                                           ------  ------- --------------  --------------  ------- ------- ------------------                        ---------------------
01000.MPLS                                                      AVC     1:07:42 22 344 499 200  22 509 932 106  44,01   34,89   LPCM 2.0 2304Kbps (48kHz/24-bit)          DTS-HD Master 5.1 4611Kbps (48kHz/24-bit)
Код:
DISC INFO:
Disc Title:     Annie Lennox • An Evening of Nostalgia with Annie Lennox Blu-ray
Disc Size:      22 509 932 106 bytes
Protection:     AACS
BD-Java:        Yes
BDInfo:         0.5.8
PLAYLIST REPORT:
Name:                   01000.MPLS
Length:                 1:07:42.016 (h:m:s.ms)
Size:                   22 344 499 200 bytes
Total Bitrate:          44,01 Mbps
VIDEO:
Codec                   Bitrate             Description
-----                   -------             -----------
MPEG-4 AVC Video        34891 kbps          1080p / 23,976 fps / 16:9 / High Profile 4.1
AUDIO:
Codec                           Language        Bitrate         Description
-----                           --------        -------         -----------
LPCM Audio                      English         2304 kbps       2.0 / 48 kHz / 2304 kbps / 24-bit
DTS-HD Master Audio             English         4611 kbps       5.1 / 48 kHz / 4611 kbps / 24-bit (DTS Core: 5.1 / 48 kHz / 1509 kbps / 24-bit)
FILES:
Name            Time In         Length          Size            Total Bitrate
----            -------         ------          ----            -------------
00000.M2TS      0:00:00.000     1:07:42.016     22 344 499 200  44 007
CHAPTERS:
Number          Time In         Length          Avg Video Rate  Max 1-Sec Rate  Max 1-Sec Time  Max 5-Sec Rate  Max 5-Sec Time  Max 10Sec Rate  Max 10Sec Time  Avg Frame Size  Max Frame Size  Max Frame Time
------          -------         ------          --------------  --------------  --------------  --------------  --------------  --------------  --------------  --------------  --------------  --------------
1               0:00:00.000     0:00:34.451     30 987 kbps     48 558 kbps     00:00:01.376    37 276 kbps     00:00:18.143    36 183 kbps     00:00:04.295    161 355 bytes   630 010 bytes   00:00:11.970
2               0:00:34.451     0:03:25.288     35 007 kbps     48 261 kbps     00:00:35.452    37 225 kbps     00:03:09.689    36 230 kbps     00:00:35.618    182 508 bytes   799 134 bytes   00:01:47.732
3               0:03:59.739     0:04:32.522     34 985 kbps     44 510 kbps     00:08:18.998    37 068 kbps     00:07:33.995    36 032 kbps     00:07:29.031    182 397 bytes   763 733 bytes   00:06:02.320
4               0:08:32.261     0:04:06.037     34 985 kbps     49 052 kbps     00:12:07.935    36 973 kbps     00:10:45.770    36 087 kbps     00:12:26.871    182 398 bytes   754 953 bytes   00:11:28.312
5               0:12:38.299     0:05:08.516     34 965 kbps     45 286 kbps     00:13:41.278    37 361 kbps     00:13:40.820    35 985 kbps     00:16:21.438    182 292 bytes   745 750 bytes   00:17:02.104
6               0:17:46.815     0:03:49.562     35 023 kbps     47 611 kbps     00:21:12.562    37 228 kbps     00:20:10.959    36 097 kbps     00:20:12.794    182 591 bytes   768 753 bytes   00:18:40.119
7               0:21:36.378     0:04:09.457     34 823 kbps     45 239 kbps     00:25:30.695    36 818 kbps     00:24:48.987    36 169 kbps     00:22:18.170    181 553 bytes   754 795 bytes   00:24:14.828
8               0:25:45.835     0:04:06.537     35 007 kbps     46 430 kbps     00:29:45.909    37 439 kbps     00:28:26.329    36 061 kbps     00:27:05.415    182 511 bytes   787 742 bytes   00:29:14.544
9               0:29:52.373     0:03:13.902     34 984 kbps     46 795 kbps     00:32:50.343    37 332 kbps     00:30:47.554    36 166 kbps     00:30:42.549    182 391 bytes   760 492 bytes   00:32:26.903
10              0:33:06.275     0:03:20.283     34 997 kbps     44 126 kbps     00:35:36.342    36 962 kbps     00:36:16.174    36 186 kbps     00:36:11.169    182 457 bytes   764 223 bytes   00:35:08.106
11              0:36:26.559     0:03:17.363     34 856 kbps     45 773 kbps     00:38:49.577    37 034 kbps     00:38:02.697    36 006 kbps     00:37:57.692    181 725 bytes   806 486 bytes   00:38:21.007
12              0:39:43.923     0:02:54.424     34 814 kbps     46 750 kbps     00:41:44.084    37 046 kbps     00:42:27.294    36 017 kbps     00:40:24.588    181 505 bytes   733 692 bytes   00:42:34.009
13              0:42:38.347     0:08:41.103     34 849 kbps     49 882 kbps     00:46:31.121    37 341 kbps     00:49:52.572    36 405 kbps     00:49:47.442    181 684 bytes   815 886 bytes   00:47:46.864
14              0:51:19.451     0:02:54.883     34 960 kbps     45 549 kbps     00:51:58.865    36 977 kbps     00:52:29.688    36 345 kbps     00:53:06.516    182 263 bytes   774 792 bytes   00:53:16.484
15              0:54:14.334     0:04:14.921     34 931 kbps     46 642 kbps     00:54:18.088    37 011 kbps     00:57:54.721    36 059 kbps     00:54:18.380    182 113 bytes   826 687 bytes   00:54:36.773
16              0:58:29.255     0:04:41.864     34 895 kbps     46 589 kbps     01:02:25.032    37 272 kbps     01:02:21.028    36 206 kbps     00:59:18.388    181 924 bytes   764 745 bytes   00:59:01.538
17              1:03:11.120     0:03:13.067     35 021 kbps     44 773 kbps     01:04:41.168    37 174 kbps     01:04:37.164    35 911 kbps     01:04:37.540    182 584 bytes   752 083 bytes   01:06:04.961
18              1:06:24.188     0:01:16.659     34 811 kbps     45 862 kbps     01:07:15.656    36 872 kbps     01:06:43.708    35 731 kbps     01:07:19.785    181 490 bytes   761 348 bytes   01:07:36.010
19              1:07:40.848     0:00:01.167     46 kbps         52 kbps         01:07:40.890    0 kbps          00:00:00.000    0 kbps          00:00:00.000    261 bytes       679 bytes       01:07:41.015
STREAM DIAGNOSTICS:
File            PID             Type            Codec           Language                Seconds                 Bitrate                 Bytes           Packets
----            ---             ----            -----           --------                --------------          --------------          -------------   -----
00000.M2TS      4113 (0x1011)   0x1B            AVC                                     4061,933                34 892                  17 716 127 689  96 340 131
00000.M2TS      4352 (0x1100)   0x80            LPCM            eng (English)           4061,933                2 310                   1 173 098 196   6 499 159
00000.M2TS      4353 (0x1101)   0x86            DTS-HD MA       eng (English)           4061,933                4 611                   2 341 373 640   13 357 786

<---- END FORUMS PASTE ---->
QUICK SUMMARY:
Disc Title: Annie Lennox • An Evening of Nostalgia with Annie Lennox Blu-ray
Disc Size: 22 509 932 106 bytes
Protection: AACS
BD-Java: Yes
Playlist: 01000.MPLS
Size: 22 344 499 200 bytes
Length: 1:07:42.016
Total Bitrate: 44,01 Mbps
Video: MPEG-4 AVC Video / 34891 kbps / 1080p / 23,976 fps / 16:9 / High Profile 4.1
Audio: English / LPCM Audio / 2.0 / 48 kHz / 2304 kbps / 24-bit
Audio: English / DTS-HD Master Audio / 5.1 / 48 kHz / 4611 kbps / 24-bit (DTS Core: 5.1 / 48 kHz / 1509 kbps / 24-bit)
********************
PLAYLIST: 01001.MPLS
********************
<--- BEGIN FORUMS PASTE --->

Код:
Total   Video
Title                                                           Codec   Length  Movie Size      Disc Size       Bitrate Bitrate Main Audio Track                          Secondary Audio Track
-----                                                           ------  ------- --------------  --------------  ------- ------- ------------------                        ---------------------
01001.MPLS                                                      AVC     1:07:42 22 344 499 200  22 509 932 106  44,01   34,89   LPCM 2.0 2304Kbps (48kHz/24-bit)          DTS-HD Master 5.1 4611Kbps (48kHz/24-bit)
Код:
DISC INFO:
Disc Title:     Annie Lennox • An Evening of Nostalgia with Annie Lennox Blu-ray
Disc Size:      22 509 932 106 bytes
Protection:     AACS
BD-Java:        Yes
BDInfo:         0.5.8
PLAYLIST REPORT:
Name:                   01001.MPLS
Length:                 1:07:42.016 (h:m:s.ms)
Size:                   22 344 499 200 bytes
Total Bitrate:          44,01 Mbps
VIDEO:
Codec                   Bitrate             Description
-----                   -------             -----------
MPEG-4 AVC Video        34891 kbps          1080p / 23,976 fps / 16:9 / High Profile 4.1
AUDIO:
Codec                           Language        Bitrate         Description
-----                           --------        -------         -----------
LPCM Audio                      English         2304 kbps       2.0 / 48 kHz / 2304 kbps / 24-bit
DTS-HD Master Audio             English         4611 kbps       5.1 / 48 kHz / 4611 kbps / 24-bit (DTS Core: 5.1 / 48 kHz / 1509 kbps / 24-bit)
FILES:
Name            Time In         Length          Size            Total Bitrate
----            -------         ------          ----            -------------
00000.M2TS      0:00:00.000     1:07:42.016     22 344 499 200  44 007
CHAPTERS:
Number          Time In         Length          Avg Video Rate  Max 1-Sec Rate  Max 1-Sec Time  Max 5-Sec Rate  Max 5-Sec Time  Max 10Sec Rate  Max 10Sec Time  Avg Frame Size  Max Frame Size  Max Frame Time
------          -------         ------          --------------  --------------  --------------  --------------  --------------  --------------  --------------  --------------  --------------  --------------
1               0:00:00.000     0:00:34.451     30 987 kbps     48 558 kbps     00:00:01.376    37 276 kbps     00:00:18.143    36 183 kbps     00:00:04.295    161 355 bytes   630 010 bytes   00:00:11.970
2               0:00:34.451     0:03:25.288     35 007 kbps     48 261 kbps     00:00:35.452    37 225 kbps     00:03:09.689    36 230 kbps     00:00:35.618    182 508 bytes   799 134 bytes   00:01:47.732
3               0:03:59.739     0:04:32.522     34 985 kbps     44 510 kbps     00:08:18.998    37 068 kbps     00:07:33.995    36 032 kbps     00:07:29.031    182 397 bytes   763 733 bytes   00:06:02.320
4               0:08:32.261     0:04:06.037     34 985 kbps     49 052 kbps     00:12:07.935    36 973 kbps     00:10:45.770    36 087 kbps     00:12:26.871    182 398 bytes   754 953 bytes   00:11:28.312
5               0:12:38.299     0:05:08.516     34 965 kbps     45 286 kbps     00:13:41.278    37 361 kbps     00:13:40.820    35 985 kbps     00:16:21.438    182 292 bytes   745 750 bytes   00:17:02.104
6               0:17:46.815     0:03:49.562     35 023 kbps     47 611 kbps     00:21:12.562    37 228 kbps     00:20:10.959    36 097 kbps     00:20:12.794    182 591 bytes   768 753 bytes   00:18:40.119
7               0:21:36.378     0:04:09.457     34 823 kbps     45 239 kbps     00:25:30.695    36 818 kbps     00:24:48.987    36 169 kbps     00:22:18.170    181 553 bytes   754 795 bytes   00:24:14.828
8               0:25:45.835     0:04:06.537     35 007 kbps     46 430 kbps     00:29:45.909    37 439 kbps     00:28:26.329    36 061 kbps     00:27:05.415    182 511 bytes   787 742 bytes   00:29:14.544
9               0:29:52.373     0:03:13.902     34 984 kbps     46 795 kbps     00:32:50.343    37 332 kbps     00:30:47.554    36 166 kbps     00:30:42.549    182 391 bytes   760 492 bytes   00:32:26.903
10              0:33:06.275     0:03:20.283     34 997 kbps     44 126 kbps     00:35:36.342    36 962 kbps     00:36:16.174    36 186 kbps     00:36:11.169    182 457 bytes   764 223 bytes   00:35:08.106
11              0:36:26.559     0:03:17.363     34 856 kbps     45 773 kbps     00:38:49.577    37 034 kbps     00:38:02.697    36 006 kbps     00:37:57.692    181 725 bytes   806 486 bytes   00:38:21.007
12              0:39:43.923     0:02:54.424     34 814 kbps     46 750 kbps     00:41:44.084    37 046 kbps     00:42:27.294    36 017 kbps     00:40:24.588    181 505 bytes   733 692 bytes   00:42:34.009
13              0:42:38.347     0:08:41.103     34 849 kbps     49 882 kbps     00:46:31.121    37 341 kbps     00:49:52.572    36 405 kbps     00:49:47.442    181 684 bytes   815 886 bytes   00:47:46.864
14              0:51:19.451     0:02:54.883     34 960 kbps     45 549 kbps     00:51:58.865    36 977 kbps     00:52:29.688    36 345 kbps     00:53:06.516    182 263 bytes   774 792 bytes   00:53:16.484
15              0:54:14.334     0:04:14.921     34 931 kbps     46 642 kbps     00:54:18.088    37 011 kbps     00:57:54.721    36 059 kbps     00:54:18.380    182 113 bytes   826 687 bytes   00:54:36.773
16              0:58:29.255     0:04:41.864     34 895 kbps     46 589 kbps     01:02:25.032    37 272 kbps     01:02:21.028    36 206 kbps     00:59:18.388    181 924 bytes   764 745 bytes   00:59:01.538
17              1:03:11.120     0:03:13.067     35 021 kbps     44 773 kbps     01:04:41.168    37 174 kbps     01:04:37.164    35 911 kbps     01:04:37.540    182 584 bytes   752 083 bytes   01:06:04.961
18              1:06:24.188     0:01:16.659     34 811 kbps     45 862 kbps     01:07:15.656    36 872 kbps     01:06:43.708    35 731 kbps     01:07:19.785    181 490 bytes   761 348 bytes   01:07:36.010
19              1:07:40.848     0:00:01.167     46 kbps         52 kbps         01:07:40.890    0 kbps          00:00:00.000    0 kbps          00:00:00.000    261 bytes       679 bytes       01:07:41.015
STREAM DIAGNOSTICS:
File            PID             Type            Codec           Language                Seconds                 Bitrate                 Bytes           Packets
----            ---             ----            -----           --------                --------------          --------------          -------------   -----
00000.M2TS      4113 (0x1011)   0x1B            AVC                                     4061,933                34 892                  17 716 127 689  96 340 131
00000.M2TS      4352 (0x1100)   0x80            LPCM            eng (English)           4061,933                2 310                   1 173 098 196   6 499 159
00000.M2TS      4353 (0x1101)   0x86            DTS-HD MA       eng (English)           4061,933                4 611                   2 341 373 640   13 357 786

<---- END FORUMS PASTE ---->
QUICK SUMMARY:
Disc Title: Annie Lennox • An Evening of Nostalgia with Annie Lennox Blu-ray
Disc Size: 22 509 932 106 bytes
Protection: AACS
BD-Java: Yes
Playlist: 01001.MPLS
Size: 22 344 499 200 bytes
Length: 1:07:42.016
Total Bitrate: 44,01 Mbps
Video: MPEG-4 AVC Video / 34891 kbps / 1080p / 23,976 fps / 16:9 / High Profile 4.1
Audio: English / LPCM Audio / 2.0 / 48 kHz / 2304 kbps / 24-bit
Audio: English / DTS-HD Master Audio / 5.1 / 48 kHz / 4611 kbps / 24-bit (DTS Core: 5.1 / 48 kHz / 1509 kbps / 24-bit)
********************
PLAYLIST: 00001.MPLS
********************
<--- BEGIN FORUMS PASTE --->

Код:
Total   Video
Title                                                           Codec   Length  Movie Size      Disc Size       Bitrate Bitrate Main Audio Track                          Secondary Audio Track
-----                                                           ------  ------- --------------  --------------  ------- ------- ------------------                        ---------------------
00001.MPLS                                                      AVC     0:00:33 158 908 416     22 509 932 106  38,47   32,08   LPCM 2.0 2304Kbps (48kHz/24-bit)          LPCM 2.0 2304Kbps (48kHz/24-bit)
Код:
DISC INFO:
Disc Title:     Annie Lennox • An Evening of Nostalgia with Annie Lennox Blu-ray
Disc Size:      22 509 932 106 bytes
Protection:     AACS
BD-Java:        Yes
BDInfo:         0.5.8
PLAYLIST REPORT:
Name:                   00001.MPLS
Length:                 0:00:33.041 (h:m:s.ms)
Size:                   158 908 416 bytes
Total Bitrate:          38,47 Mbps
VIDEO:
Codec                   Bitrate             Description
-----                   -------             -----------
MPEG-4 AVC Video        32080 kbps          1080p / 24 fps / 16:9 / High Profile 4.1
AUDIO:
Codec                           Language        Bitrate         Description
-----                           --------        -------         -----------
LPCM Audio                      Undetermined    2304 kbps       2.0 / 48 kHz / 2304 kbps / 24-bit
LPCM Audio                      Undetermined    2304 kbps       2.0 / 48 kHz / 2304 kbps / 24-bit
FILES:
Name            Time In         Length          Size            Total Bitrate
----            -------         ------          ----            -------------
00001.M2TS      0:00:00.000     0:00:33.041     158 908 416     38 475
CHAPTERS:
Number          Time In         Length          Avg Video Rate  Max 1-Sec Rate  Max 1-Sec Time  Max 5-Sec Rate  Max 5-Sec Time  Max 10Sec Rate  Max 10Sec Time  Avg Frame Size  Max Frame Size  Max Frame Time
------          -------         ------          --------------  --------------  --------------  --------------  --------------  --------------  --------------  --------------  --------------  --------------
1               0:00:00.000     0:00:33.041     32 080 kbps     43 486 kbps     00:00:00.875    34 823 kbps     00:00:00.749    33 517 kbps     00:00:00.500    167 083 bytes   920 139 bytes   00:00:09.583
STREAM DIAGNOSTICS:
File            PID             Type            Codec           Language                Seconds                 Bitrate                 Bytes           Packets
----            ---             ----            -----           --------                --------------          --------------          -------------   -----
00001.M2TS      4113 (0x1011)   0x1B            AVC                                     32,958                  32 161                  132 497 018     720 556
00001.M2TS      4352 (0x1100)   0x80            LPCM            und (Undetermined)      32,958                  2 313                   9 530 400       52 800
00001.M2TS      4353 (0x1101)   0x80            LPCM            und (Undetermined)      32,958                  2 313                   9 530 400       52 800

<---- END FORUMS PASTE ---->
QUICK SUMMARY:
Disc Title: Annie Lennox • An Evening of Nostalgia with Annie Lennox Blu-ray
Disc Size: 22 509 932 106 bytes
Protection: AACS
BD-Java: Yes
Playlist: 00001.MPLS
Size: 158 908 416 bytes
Length: 0:00:33.041
Total Bitrate: 38,47 Mbps
Video: MPEG-4 AVC Video / 32080 kbps / 1080p / 24 fps / 16:9 / High Profile 4.1
Audio: Undetermined / LPCM Audio / 2.0 / 48 kHz / 2304 kbps / 24-bit
Audio: Undetermined / LPCM Audio / 2.0 / 48 kHz / 2304 kbps / 24-bit
********************
PLAYLIST: 01002.MPLS
********************
<--- BEGIN FORUMS PASTE --->

Код:
Total   Video
Title                                                           Codec   Length  Movie Size      Disc Size       Bitrate Bitrate Main Audio Track                          Secondary Audio Track
-----                                                           ------  ------- --------------  --------------  ------- ------- ------------------                        ---------------------
01002.MPLS                                                      AVC     0:00:33 158 908 416     22 509 932 106  38,47   32,08   LPCM 2.0 2304Kbps (48kHz/24-bit)          LPCM 2.0 2304Kbps (48kHz/24-bit)
Код:
DISC INFO:
Disc Title:     Annie Lennox • An Evening of Nostalgia with Annie Lennox Blu-ray
Disc Size:      22 509 932 106 bytes
Protection:     AACS
BD-Java:        Yes
BDInfo:         0.5.8
PLAYLIST REPORT:
Name:                   01002.MPLS
Length:                 0:00:33.041 (h:m:s.ms)
Size:                   158 908 416 bytes
Total Bitrate:          38,47 Mbps
VIDEO:
Codec                   Bitrate             Description
-----                   -------             -----------
MPEG-4 AVC Video        32080 kbps          1080p / 24 fps / 16:9 / High Profile 4.1
AUDIO:
Codec                           Language        Bitrate         Description
-----                           --------        -------         -----------
LPCM Audio                      Undetermined    2304 kbps       2.0 / 48 kHz / 2304 kbps / 24-bit
LPCM Audio                      Undetermined    2304 kbps       2.0 / 48 kHz / 2304 kbps / 24-bit
FILES:
Name            Time In         Length          Size            Total Bitrate
----            -------         ------          ----            -------------
00001.M2TS      0:00:00.000     0:00:33.041     158 908 416     38 475
CHAPTERS:
Number          Time In         Length          Avg Video Rate  Max 1-Sec Rate  Max 1-Sec Time  Max 5-Sec Rate  Max 5-Sec Time  Max 10Sec Rate  Max 10Sec Time  Avg Frame Size  Max Frame Size  Max Frame Time
------          -------         ------          --------------  --------------  --------------  --------------  --------------  --------------  --------------  --------------  --------------  --------------
1               0:00:00.000     0:00:31.999     32 674 kbps     43 486 kbps     00:00:00.875    34 823 kbps     00:00:00.749    33 517 kbps     00:00:00.500    169 957 bytes   920 139 bytes   00:00:09.583
2               0:00:31.999     0:00:01.041     13 827 kbps     0 kbps          00:00:00.000    0 kbps          00:00:00.000    0 kbps          00:00:00.000    75 018 bytes    737 183 bytes   00:00:32.583
STREAM DIAGNOSTICS:
File            PID             Type            Codec           Language                Seconds                 Bitrate                 Bytes           Packets
----            ---             ----            -----           --------                --------------          --------------          -------------   -----
00001.M2TS      4113 (0x1011)   0x1B            AVC                                     32,958                  32 161                  132 497 018     720 556
00001.M2TS      4352 (0x1100)   0x80            LPCM            und (Undetermined)      32,958                  2 313                   9 530 400       52 800
00001.M2TS      4353 (0x1101)   0x80            LPCM            und (Undetermined)      32,958                  2 313                   9 530 400       52 800

<---- END FORUMS PASTE ---->
QUICK SUMMARY:
Disc Title: Annie Lennox • An Evening of Nostalgia with Annie Lennox Blu-ray
Disc Size: 22 509 932 106 bytes
Protection: AACS
BD-Java: Yes
Playlist: 01002.MPLS
Size: 158 908 416 bytes
Length: 0:00:33.041
Total Bitrate: 38,47 Mbps
Video: MPEG-4 AVC Video / 32080 kbps / 1080p / 24 fps / 16:9 / High Profile 4.1
Audio: Undetermined / LPCM Audio / 2.0 / 48 kHz / 2304 kbps / 24-bit
Audio: Undetermined / LPCM Audio / 2.0 / 48 kHz / 2304 kbps / 24-bit
********************
PLAYLIST: 00002.MPLS
********************
<--- BEGIN FORUMS PASTE --->

Код:
Total   Video
Title                                                           Codec   Length  Movie Size      Disc Size       Bitrate Bitrate Main Audio Track                          Secondary Audio Track
-----                                                           ------  ------- --------------  --------------  ------- ------- ------------------                        ---------------------
00002.MPLS                                                      AVC     0:00:25 4 964 352       22 509 932 106  1,56    1,41
Код:
DISC INFO:
Disc Title:     Annie Lennox • An Evening of Nostalgia with Annie Lennox Blu-ray
Disc Size:      22 509 932 106 bytes
Protection:     AACS
BD-Java:        Yes
BDInfo:         0.5.8
PLAYLIST REPORT:
Name:                   00002.MPLS
Length:                 0:00:25.525 (h:m:s.ms)
Size:                   4 964 352 bytes
Total Bitrate:          1,56 Mbps
VIDEO:
Codec                   Bitrate             Description
-----                   -------             -----------
MPEG-4 AVC Video        1406 kbps           1080p / 23,976 fps / 16:9 / High Profile 4.1
FILES:
Name            Time In         Length          Size            Total Bitrate
----            -------         ------          ----            -------------
00002.M2TS      0:00:00.000     0:00:25.525     4 964 352       1 556
CHAPTERS:
Number          Time In         Length          Avg Video Rate  Max 1-Sec Rate  Max 1-Sec Time  Max 5-Sec Rate  Max 5-Sec Time  Max 10Sec Rate  Max 10Sec Time  Avg Frame Size  Max Frame Size  Max Frame Time
------          -------         ------          --------------  --------------  --------------  --------------  --------------  --------------  --------------  --------------  --------------  --------------
1               0:00:00.000     0:00:25.525     1 406 kbps      9 085 kbps      00:00:01.042    2 961 kbps      00:00:01.001    2 709 kbps      00:00:01.042    7 345 bytes     159 335 bytes   00:00:02.877
STREAM DIAGNOSTICS:
File            PID             Type            Codec           Language                Seconds                 Bitrate                 Bytes           Packets
----            ---             ----            -----           --------                --------------          --------------          -------------   -----
00002.M2TS      4113 (0x1011)   0x1B            AVC                                     25,442                  1 411                   4 487 588       24 734

<---- END FORUMS PASTE ---->
QUICK SUMMARY:
Disc Title: Annie Lennox • An Evening of Nostalgia with Annie Lennox Blu-ray
Disc Size: 22 509 932 106 bytes
Protection: AACS
BD-Java: Yes
Playlist: 00002.MPLS
Size: 4 964 352 bytes
Length: 0:00:25.525
Total Bitrate: 1,56 Mbps
Video: MPEG-4 AVC Video / 1406 kbps / 1080p / 23,976 fps / 16:9 / High Profile 4.1
********************
PLAYLIST: 01003.MPLS
********************
<--- BEGIN FORUMS PASTE --->

Код:
Total   Video
Title                                                           Codec   Length  Movie Size      Disc Size       Bitrate Bitrate Main Audio Track                          Secondary Audio Track
-----                                                           ------  ------- --------------  --------------  ------- ------- ------------------                        ---------------------
01003.MPLS                                                      AVC     0:00:25 4 964 352       22 509 932 106  1,56    1,41
Код:
DISC INFO:
Disc Title:     Annie Lennox • An Evening of Nostalgia with Annie Lennox Blu-ray
Disc Size:      22 509 932 106 bytes
Protection:     AACS
BD-Java:        Yes
BDInfo:         0.5.8
PLAYLIST REPORT:
Name:                   01003.MPLS
Length:                 0:00:25.525 (h:m:s.ms)
Size:                   4 964 352 bytes
Total Bitrate:          1,56 Mbps
VIDEO:
Codec                   Bitrate             Description
-----                   -------             -----------
MPEG-4 AVC Video        1406 kbps           1080p / 23,976 fps / 16:9 / High Profile 4.1
FILES:
Name            Time In         Length          Size            Total Bitrate
----            -------         ------          ----            -------------
00002.M2TS      0:00:00.000     0:00:25.525     4 964 352       1 556
CHAPTERS:
Number          Time In         Length          Avg Video Rate  Max 1-Sec Rate  Max 1-Sec Time  Max 5-Sec Rate  Max 5-Sec Time  Max 10Sec Rate  Max 10Sec Time  Avg Frame Size  Max Frame Size  Max Frame Time
------          -------         ------          --------------  --------------  --------------  --------------  --------------  --------------  --------------  --------------  --------------  --------------
1               0:00:00.000     0:00:25.525     1 406 kbps      9 085 kbps      00:00:01.042    2 961 kbps      00:00:01.001    2 709 kbps      00:00:01.042    7 345 bytes     159 335 bytes   00:00:02.877
STREAM DIAGNOSTICS:
File            PID             Type            Codec           Language                Seconds                 Bitrate                 Bytes           Packets
----            ---             ----            -----           --------                --------------          --------------          -------------   -----
00002.M2TS      4113 (0x1011)   0x1B            AVC                                     25,442                  1 411                   4 487 588       24 734

<---- END FORUMS PASTE ---->
QUICK SUMMARY:
Disc Title: Annie Lennox • An Evening of Nostalgia with Annie Lennox Blu-ray
Disc Size: 22 509 932 106 bytes
Protection: AACS
BD-Java: Yes
Playlist: 01003.MPLS
Size: 4 964 352 bytes
Length: 0:00:25.525
Total Bitrate: 1,56 Mbps
Video: MPEG-4 AVC Video / 1406 kbps / 1080p / 23,976 fps / 16:9 / High Profile 4.1
   
Торрент: Зарегистрирован [11 май 2015, 18:51] Скачать торрент Магнет ссылка
Скачать торрент
[ Размер 55.67 КБ / Просмотров 340 ]
Статус:
Проверен
 
.torrent скачан: 1 раз
Размер: 20.96 ГБ (22 509 932 106 байт)
   
 
 
Цитата
  • Похожие торренты
    Ответы
    Просмотры
    Последнее сообщение

Вернуться в World Pop

Кто сейчас на конференции

Сейчас эту тему просматривают: нет зарегистрированных пользователей и гости: 1