Храбрейшие Воины / Bravest Warriors / Сезон 1-2 / Серии 1-24 из 24 / Минизоды 1-5 из 5 (Брин Бёрнс / Breehn Burns) [2012-2014, Анимационный, Приключения, Фантастика, WEBRip 1080p] DVO (Т.О Друзей)

 Статистика раздачи 
Размер: 2.82 ГБ   |  Зарегистрирован: 04 май 2015, 20:42   |   .torrent скачан: 21 раз
Сидеров: 133  [ 0 байт/сек ]     Личеров: 39  [ 0 байт/сек ]  
  
Аватара пользователя
Администратор
Администратор
Автор темы
Раздал: 24.47 ТБ
Скачал: 388.83 ГБ
Ратио: 145.334
Сообщения: 5358
Стаж: 6 лет 10 месяцев 18 дней
Откуда: Lithuania

Храбрейшие Воины / Bravest Warriors



Русское название: Храбрейшие воины
Оригинальное название: Bravest Warriors
Год выхода: 2012-2014
Режиссер: Брин Бёрнс, Джейсон Джонсон/ Breehn Burns
В ролях: Александр Уолш, Лилиана Муми, Йен Джонс-Кварти, Брин Бёрнс, Сэм Лаваньино, Майкл-Леон Вули, Мария Бэмфорд, Тара Стронг, Билл Муми, Вик Карол
Страна производства: США
Продолжительность: 5 мин.
Композитор: Джон Бакен, Питер Беркман, Дэниэл Патрик Уайт
Монтаж: Энди Ток, Валери Родригес, Рэй Валенсуела
Художник: Кристи Бекерт
Продюсер: Эрик Хомэн, Кевин Колд, Фред Сейберт
Сценарий: Брин Бёрнс, Пендлтон Уорд, Уилл МакРобб
Премьера в мире: 8 ноября 2012
Жанр: мультфильм, фантастика, боевик, комедия, приключения
Озвучивание: Любительский (двухголосый закадровый) - Т.О Друзей
Перевод на Русский: Перевёл Павел Самойлов (Tanis)
Русские субтитры: нет


Описание: Мультсериал рассказывает о четырёх 16-летних героях, которые путешествуют по галактикам, спасая милые инопланетные мирки при помощи своих эмоций.


Рейтинг IMDB:
Рейтинг Kinopoisk:





Качество HD: WEBRip
Формат аудио: AAC
Формат видео: MP4
Видео: MPEG-4 Video 1920 x 1080, 23.976 fps ~ 2 788 Kbps
Аудио: AAC 44100Hz stereo ~ 192 Kbps


Код: Выделить всё
General
Complete name                  : C:\Documents and Settings\Admin\Рабочий стол\Храбрейшие Воины Серия 1.mp4
Format                         : MPEG-4
Format profile                 : Base Media / Version 2
Codec ID                       : mp42
File size                      : 121 MiB
Duration                       : 5mn 39s
Overall bit rate mode          : Variable
Overall bit rate               : 2 982 Kbps
Encoded date                   : UTC 2013-01-05 18:12:11
Tagged date                    : UTC 2013-01-05 18:12:11
gsst                           : 0
gstd                           : 339823
gssd                           : BBCA2A004MM1357596753154924
gshh                           : r1---sn-tvu5-3gge.c.youtube.com

Video
ID                             : 1
Format                         : AVC
Format/Info                    : Advanced Video Codec
Format profile                 : [email protected]
Format settings, CABAC         : Yes
Format settings, ReFrames      : 1 frame
Codec ID                       : avc1
Codec ID/Info                  : Advanced Video Coding
Duration                       : 5mn 39s
Bit rate                       : 2 788 Kbps
Maximum bit rate               : 8 829 Kbps
Width                          : 1 920 pixels
Height                         : 1 080 pixels
Display aspect ratio           : 16:9
Frame rate mode                : Constant
Frame rate                     : 23.976 fps
Color space                    : YUV
Chroma subsampling             : 4:2:0
Bit depth                      : 8 bits
Scan type                      : Progressive
Bits/(Pixel*Frame)             : 0.056
Stream size                    : 113 MiB (93%)
Tagged date                    : UTC 2013-01-05 18:12:12

Audio
ID                             : 2
Format                         : AAC
Format/Info                    : Advanced Audio Codec
Format profile                 : LC
Codec ID                       : 40
Duration                       : 5mn 39s
Bit rate mode                  : Variable
Bit rate                       : 192 Kbps
Maximum bit rate               : 201 Kbps
Channel(s)                     : 2 channels
Channel positions              : Front: L R
Sampling rate                  : 44.1 KHz
Compression mode               : Lossy
Stream size                    : 7.77 MiB (6%)
Title                          : IsoMedia File Produced by Google, 5-11-2011
Encoded date                   : UTC 2013-01-05 18:12:11
Tagged date                    : UTC 2013-01-05 18:12:12

   
Торрент: Зарегистрирован [04 май 2015, 20:42] Зарубежные Скачать торрент Магнет ссылка
Скачать торрент
[ Размер 17.94 КБ / Просмотров 437 ]
Статус:
Проверен
 
.torrent скачан: 21 раз
Размер: 2.82 ГБ (3 026 787 571 байт)
   
 
 
Цитата
  • Похожие торренты
    Ответы
    Просмотры
    Последнее сообщение

Вернуться в Зарубежные

Кто сейчас на конференции

Сейчас эту тему просматривают: нет зарегистрированных пользователей и гости: 1