Jeff Lynne's ELO - Wembley Or Bust (2017) DVD9

 Статистика раздачи 
Размер: 7.08 ГБ   |  Зарегистрирован: 24 янв 2018, 17:33   |   .torrent скачан: 3 раз
Сидеров: 13  [ 0 байт/сек ]     Личеров: 4  [ 0 байт/сек ]  
  
Аватара пользователя
 
Раздал: 3.66 ТБ
Скачал: 101.21 ГБ
Ратио: 37.011
Сообщения: 201107
Стаж: 1 год 8 месяцев 28 дней
СообщениеДобавлено: 18 ноя 2017, 06:33


Jeff Lynne's ELO - Wembley Or Bust (2017) DVD9

Жанр: Progressive Rock, Art Rock

Описание:
Материал был записан во время концерта Джеффа Линна и ELO на стадионе Уэмбли в Лондоне 24 июня. Видео и аудиозапись концерта выпущена во всех возможных форматах: на CD, DVD, Blu-Ray и виниле и стала доступна покупателям 17 ноября.
Режиссером фильма-концерта выступил Пол Дагдейл. Как говорится в пресс-релизе, концерт на Уэмбли - «одно из величайших рок-н-ролльных представлений» всех времен, наполненное всевозможными спецэффектами, которыми знаменит Джефф Линн, также классическими хитами ELO, таких как "Evil Woman", "Don’t Bring Me Down", "Mr Blue Sky" и многих других.
Следует отметить, что трек-лист концерта включает только одну новую композицию: номер "When I was a Boy" вышел на последнем на сегодня альбоме Electric Light Orchestra, "Alone In In The Universe" (2015).
В трейлере Джефф Линн так говорит о прошедшем концерте: «Это лучшее, что я когда-либо делал в музыке. Это превзошло все мои ожидания».

Продолжительность: 01:58:15
Качество видео: DVD9

Видео: MPEG-2, NTSC, 720x480@853x480 (16:9), ~9800 Kbps
Аудио: PCM, 2 ch, 1536 Kbps, 48 KHz

Треклист:
1. Standin' in the Rain
2. Evil Woman
3. All Over the World
4. Showdown
5. Livin' Thing
6. Scene 1
7. Do Ya
8. When I Was a Boy
9. Handle with Care
10. Scene 2
11. Last Train to London
12. Xanadu
13. Rockaria!
14. Band Introductions
15. Can't Get It Out of My Head
16. 10538 Overture
17. Scene 3
18. Twilight
19. Ma-Ma-Ma Belle
20. Shine a Little Love
21. Wild West Hero
22. Scene 4
23. Sweet Talkin' Woman
24. Telephone Line
25. Turn to Stone
26. Don't Bring Me Down
27. Mr. Blue Sky
28. Scene 5
29. Roll Over Beethoven
30. Credits
Код: Выделить всё
General
Complete name                  : F:\CONCERT\Jeff Lynne's ELO - Wembley Or Bust (2017)\VIDEO_TS\VTS_01_1.VOB
Format                         : MPEG-PS
File size                      : 1 024 MiB
Duration                       : 16 min 34 s
Overall bit rate mode          : Variable
Overall bit rate               : 8 638 kb/s

Video
ID                             : 224 (0xE0)
Format                         : MPEG Video
Format version                 : Version 2
Format profile                 : Main@Main
Format settings, BVOP          : Yes
Format settings, Matrix        : Custom
Format settings, GOP           : Variable
Duration                       : 16 min 34 s
Bit rate mode                  : Variable
Bit rate                       : 6 930 kb/s
Maximum bit rate               : 9 800 kb/s
Width                          : 720 pixels
Height                         : 480 pixels
Display aspect ratio           : 16:9
Frame rate                     : 23.976 (24000/1001) FPS
Color space                    : YUV
Chroma subsampling             : 4:2:0
Bit depth                      : 8 bits
Scan type                      : Progressive
Scan order                     : 2:3 Pulldown
Compression mode               : Lossy
Bits/(Pixel*Frame)             : 0.836
Time code of first frame       : 01:00:00:00
Time code source               : Group of pictures header
Stream size                    : 821 MiB (80%)

Audio
ID                             : 189 (0xBD)-160 (0xA0)
Format                         : PCM
Format settings, Endianness    : Big
Format settings, Sign          : Signed
Muxing mode                    : DVD-Video
Duration                       : 16 min 34 s
Bit rate mode                  : Constant
Bit rate                       : 1 536 kb/s
Channel(s)                     : 2 channels
Sampling rate                  : 48.0 kHz
Bit depth                      : 24 bits
Stream size                    : 182 MiB (18%)

Menu
Title: Jeff Lynne's ELO - Wembley Or Bust (2017)
Size: 7.08 Gb ( 7 421 682,00 KBytes ) - DVD-9
Enabled regions: 1, 2, 3, 4, 5, 6, 7, 8

VTS_01 :
Play Length: 01:58:14+00:00:01+{00:00:01}+{00:00:01}
Video: NTSC 16:9 (720x480) VBR, Auto Letterboxed
Audio:
English (LinearPCM, 2 ch)

VTS_02 :
Play Length: 00:00:34
Video: NTSC 16:9 (720x480) VBR, Auto Letterboxed
Audio:
English (Dolby AC3, 2 ch)

VTS_03 :
Play Length: 00:00:01
Video: NTSC 16:9 (720x480) VBR, Auto Letterboxed
Audio:
English (LinearPCM, 2 ch)

VTS_04 :
Play Length: 00:00:01
Video: NTSC 16:9 (720x480) VBR, Auto Letterboxed
Audio:
English (LinearPCM, 2 ch)

* Menus Information *

VIDEO_TS Menu
Video:
NTSC 4:3 (720x480) VBR
Auto Pan&Scan, Auto Letterboxed
English Language Unit :
Title Menu

VTS_01 Menu
Video:
NTSC 4:3 (720x480) VBR
Auto Pan&Scan, Auto Letterboxed
English Language Unit :
Root Menu

VTS_02 Menu
Video:
NTSC 4:3 (720x480) VBR
Auto Pan&Scan, Auto Letterboxed
English Language Unit :
Root Menu

VTS_03 Menu
Video:
NTSC 16:9 (720x480) VBR
Auto Letterboxed
Audio:
Not specified (LinearPCM, 2 ch)
English Language Unit :
Root Menu

VTS_04 Menu
Video:
NTSC 16:9 (720x480) VBR
Auto Letterboxed
English Language Unit :
Root Menu

Скриншоты:









Время раздачи: Круглосуточно (до появления первых 3-5 скачавших)
Не забывайте говорить Спасибо. Не уходите с раздачи!   
Торрент: Зарегистрирован [24 янв 2018, 17:33] Для скачивания .torrent
необходима регистрация
Или скачать с помощью
MediaGet
Статус:
Проверен
 
.torrent скачан: 3 раз
Хэш: 94c2901bd684a99fae1816963453d1de03edff1f
Размер: 7.08 ГБ (7 599 802 368 байт)
   Стать Автором раздачи
   
Цитата
  • Похожие торренты
    Ответы
    Просмотры
    Последнее сообщение

Вернуться в Concert Recording

Кто сейчас на конференции

Сейчас эту тему просматривают: нет зарегистрированных пользователей и гости: 1