Rainbow - Memories In Rock (Live In Germany) (2016) DVD9

 Статистика раздачи 
Размер: 7.72 ГБ   |  Зарегистрирован: 24 янв 2018, 17:33   |   .torrent скачан: 0 раз
Сидеров: 0  [ 0 байт/сек ]     Личеров: 2  [ 0 байт/сек ]  
  
Аватара пользователя
 
Раздал: 2.01 ТБ
Скачал: 5.89 ГБ
Ратио: 348.978
Сообщения: 151790
Стаж: 1 год 2 месяца 27 дней
СообщениеДобавлено: 17 ноя 2017, 04:08


Rainbow - Memories In Rock (Live In Germany) (2016) DVD9

Производство: Eagle Vision ‎
Жанр: Hard Rock

Состав:
Ritchie Blackmore - Guitars
Bob Nouveau - Bass
David Keith - Drums
Jens Johansson - Keyboards
Ronald Romero - Vocals

Описание:
В июне 2016 года легендарный гитарист Ричи Блэкмор (Ritchie Blackmore) воплотил в жизнь мечты многих фэнов, возродив свою группу RAINBOW для трех выступлений в Европе – двух в Германии и одного в Англии. Немецкие шоу в Лореляе и Битигхайме были запечатлены на видео и легли в основу релиза под названием "Memories In Rock - Live In Germany", который увидел свет 18 ноября на лейбле Eagle Rock Entertainment.

Продолжительность: 01:50:16+00:29:01
Качество видео: DVD9

Видео: MPEG-2, NTSC, [email protected] (16:9), VBR, ~5348 Kbps
Аудио1: AC3, 2 ch, 256 Kbps, 48 KHz
Аудио2: AC3, 6 ch, 448 Kbps, 48 KHz
Аудио3: DTS, 6 ch, 1510 Kbps, 48 KHz

Треклист:
1. Intro
2. Highway Star (Deep Purple cover)
3. Spotlight Kid
4. Mistreated (Deep Purple cover)
5. 16th Century Greensleeves
6. Since You Been Gone (Russ Ballard cover)
7. Man on the Silver Mountain
8. Catch the Rainbow
9. Difficult to Cure (Beethoven's Ninth)
10. Perfect Strangers (Deep Purple cover)
11. Stargazer
12. Long Live Rock 'N' Roll
13. Child in Time / Woman from Tokyo (Deep Purple cover)
14. Black Night (Deep Purple cover)
15. Smoke on the Water (Deep Purple cover)
+
01. Spotlight Kid
02. Man On thе Silver Mountain
03. Long Live Rock'n’Roll
04. Stargazer
Код: Выделить всё
General
Complete name                  : F:\CONCERT\Rainbow - Memories In Rock Live In Germany 2016\VIDEO_TS\VTS_03_1.VOB
Format                         : MPEG-PS
File size                      : 1 024 MiB
Duration                       : 18 min 33 s
Overall bit rate mode          : Variable
Overall bit rate               : 7 716 kb/s

Video
ID                             : 224 (0xE0)
Format                         : MPEG Video
Format version                 : Version 2
Format profile                 : [email protected]
Format settings, BVOP          : Yes
Format settings, Matrix        : Custom
Format settings, GOP           : Variable
Format settings, picture struc : Frame
Duration                       : 18 min 33 s
Bit rate mode                  : Variable
Bit rate                       : 5 348 kb/s
Maximum bit rate               : 9 800 kb/s
Width                          : 720 pixels
Height                         : 480 pixels
Display aspect ratio           : 16:9
Frame rate                     : 29.970 (30000/1001) FPS
Standard                       : NTSC
Color space                    : YUV
Chroma subsampling             : 4:2:0
Bit depth                      : 8 bits
Scan type                      : Interlaced
Scan order                     : Top Field First
Compression mode               : Lossy
Bits/(Pixel*Frame)             : 0.516
Time code of first frame       : 00:59:59:00
Time code source               : Group of pictures header
GOP, Open/Closed               : Open
GOP, Open/Closed of first fram : Closed
Stream size                    : 710 MiB (69%)

Audio #1
ID                             : 189 (0xBD)-128 (0x80)
Format                         : AC-3
Format/Info                    : Audio Coding 3
Format settings, Endianness    : Big
Muxing mode                    : DVD-Video
Duration                       : 18 min 32 s
Bit rate mode                  : Constant
Bit rate                       : 256 kb/s
Channel(s)                     : 2 channels
Channel positions              : Front: L R
Sampling rate                  : 48.0 kHz
Frame rate                     : 31.250 FPS (1536 spf)
Bit depth                      : 16 bits
Compression mode               : Lossy
Stream size                    : 34.0 MiB (3%)
Service kind                   : Complete Main

Audio #2
ID                             : 189 (0xBD)-129 (0x81)
Format                         : AC-3
Format/Info                    : Audio Coding 3
Format settings, Endianness    : Big
Muxing mode                    : DVD-Video
Duration                       : 18 min 32 s
Bit rate mode                  : Constant
Bit rate                       : 448 kb/s
Channel(s)                     : 6 channels
Channel positions              : Front: L C R, Side: L R, LFE
Sampling rate                  : 48.0 kHz
Frame rate                     : 31.250 FPS (1536 spf)
Bit depth                      : 16 bits
Compression mode               : Lossy
Stream size                    : 59.4 MiB (6%)
Service kind                   : Complete Main

Audio #3
ID                             : 189 (0xBD)-138 (0x8A)
Format                         : DTS
Format/Info                    : Digital Theater Systems
Mode                           : 16
Format settings, Endianness    : Big
Muxing mode                    : DVD-Video
Duration                       : 18 min 32 s
Bit rate mode                  : Constant
Bit rate                       : 1 510 kb/s
Channel(s)                     : 6 channels
Channel positions              : Front: L C R, Side: L R, LFE
Sampling rate                  : 48.0 kHz
Frame rate                     : 93.750 FPS (512 spf)
Bit depth                      : 24 bits
Compression mode               : Lossy
Stream size                    : 200 MiB (20%)

Menu
Title: Rainbow - Memories In Rock Live In Germany 2016
Size: 7.72 Gb ( 8 097 036,00 KBytes ) - DVD-9
Enabled regions: 1, 2, 3, 4, 5, 6, 7, 8

VTS_01 :
Play Length: 00:09:16+{00:09:16}
Video: NTSC 16:9 (720x480) VBR, Auto Letterboxed
Audio:
English (Dolby AC3, 2 ch)
English (Dolby AC3, 6 ch)
English (DTS, 5 ch)
English (Dolby AC3, 6 ch)
English (Dolby AC3, 6 ch)
English (Dolby AC3, 6 ch)

VTS_02 :
Play Length: 00:08:17+{00:08:17}
Video: NTSC 16:9 (720x480) VBR, Auto Letterboxed
Audio:
English (Dolby AC3, 2 ch)
English (Dolby AC3, 6 ch)
English (DTS, 5 ch)

VTS_03 :
Play Length: 01:50:16
Video: NTSC 16:9 (720x480) VBR, Auto Letterboxed
Audio:
English (Dolby AC3, 2 ch)
English (Dolby AC3, 6 ch)
English (DTS, 5 ch)

VTS_04 :
Play Length: 00:05:54+{00:05:54}
Video: NTSC 16:9 (720x480) VBR, Auto Letterboxed
Audio:
English (Dolby AC3, 2 ch)
English (Dolby AC3, 6 ch)
English (DTS, 5 ch)

VTS_05 :
Play Length: 00:05:34+{00:05:34}
Video: NTSC 16:9 (720x480) VBR, Auto Letterboxed
Audio:
English (Dolby AC3, 2 ch)
English (Dolby AC3, 6 ch)
English (DTS, 5 ch)

VTS_06 :
Play Length: 00:00:20
Video: NTSC 16:9 (720x480) VBR, Auto Letterboxed
Audio:
English (Dolby AC3, 6 ch)

* Menus Information *

VIDEO_TS Menu
Video:
NTSC 16:9 (720x480) VBR
Auto Pan&Scan, Auto Letterboxed
English Language Unit :
Title Menu

VTS_01 Menu
Video:
NTSC 16:9 (720x480) VBR
Auto Letterboxed
Audio:
Not specified (Dolby AC3, 2 ch)
English Language Unit :
Root Menu

VTS_02 Menu
Video:
NTSC 4:3 (720x480) VBR
English Language Unit :
Root Menu

VTS_03 Menu
Video:
NTSC 4:3 (720x480) VBR
English Language Unit :
Root Menu

VTS_04 Menu
Video:
NTSC 4:3 (720x480) VBR
English Language Unit :
Root Menu

VTS_05 Menu
Video:
NTSC 4:3 (720x480) VBR
English Language Unit :
Root Menu

VTS_06 Menu
Video:
NTSC 4:3 (720x480) VBR
English Language Unit :
Root Menu

Скриншоты:



Время раздачи: Круглосуточно (до появления первых 3-5 скачавших)
   
Торрент: Зарегистрирован [24 янв 2018, 17:33] Скачать торрент Магнет ссылка
Скачать торрент
[ Размер 21.7 КБ / Просмотров 15 ]
Статус:
Проверен
 
.torrent скачан: 0 раз
Размер: 7.72 ГБ (8 291 364 864 байт)
   Стать Автором раздачи
 
 
Цитата
  • Похожие торренты
    Ответы
    Просмотры
    Последнее сообщение

Вернуться в Concert Recording

Кто сейчас на конференции

Сейчас эту тему просматривают: нет зарегистрированных пользователей и гости: 1