Death Angel - Sonic German Beatdown (Live In Germany) (2009) DVD9

 Статистика раздачи 
Размер: 7.82 ГБ   |  Зарегистрирован: 24 янв 2018, 17:33   |   .torrent скачан: 0 раз
Сидеров: 5  [ 0 байт/сек ]     Личеров: 1  [ 0 байт/сек ]  
  
Аватара пользователя
 
Раздал: 3.66 ТБ
Скачал: 101.21 ГБ
Ратио: 37.011
Сообщения: 201107
Стаж: 1 год 8 месяцев 28 дней

Death Angel - Sonic German Beatdown (Live In Germany) (2009) DVD9

Производство: Nuclear Blast (Germany)
Жанр: Thrash Metal

Состав:
Mark Osegueda - Vocals
Rob Cavestany - Guitars
Ted Aguilar - Guitars
Dennis Pepa - Bass
Andy Galeon - Drums

Описание:
Релиз содержит выступления группы на фестивалях Rock Hard 2007, Live Factory 2008 и пару клипов (Thicker Than Blood, Dethroned (uncensored))

Продолжительность: 01:19:01+01:42:25
Качество видео: DVD9

Видео: MPEG-2, PAL, 720x576@1024x576 (16:9), ~8000 Kbps (Rock Hard)
Видео: MPEG-2, PAL, 720x576@768x576 (4:3), ~8000 Kbps (Live Factory)
Аудио: AC3, 2 ch, 224 Kbps, 48.0 KHz

Треклист Rock Hard 2007:
Intro
Seemingly Endless Time
Voracious Souls
Mistress Of Pain
EX-TC
3rd Floor
Thrown To The Wolves
5 Steps Of Freedom
Thicker Than Blood
The Devil Incarnate
Disturbing The Peace
Stagnant
The Ultra Violence
(introduction: Carnival Justice)
Bored
Kill As One
Lord of Hate
Evil Priest
Sonic Beatdown
Dethroned
Voracious Souls
Carnival Justice
Buried Alive
Soulless
When Worlds Collide
Seemingly Endless Time
God vs. God
Steal The Crown
Devil Incarnate
3rd Floor
Kill As One
Resurrection Machine
Thrown to The Wolves
Код: Выделить всё
General
Complete name                  : F:\CONCERT\Death Angel - Sonic German Beatdown (Live In Germany) 2009\VIDEO_TS\VTS_01_1.VOB
Format                         : MPEG-PS
File size                      : 1 024 MiB
Duration                       : 23 min 25 s
Overall bit rate mode          : Variable
Overall bit rate               : 6 110 kb/s

Video
ID                             : 224 (0xE0)
Format                         : MPEG Video
Format version                 : Version 2
Format profile                 : Main@Main
Format settings, BVOP          : Yes
Format settings, Matrix        : Custom
Format settings, GOP           : Variable
Duration                       : 23 min 25 s
Bit rate mode                  : Variable
Bit rate                       : 5 764 kb/s
Maximum bit rate               : 8 000 kb/s
Width                          : 720 pixels
Height                         : 576 pixels
Display aspect ratio           : 16:9
Frame rate                     : 25.000 FPS
Standard                       : PAL
Color space                    : YUV
Chroma subsampling             : 4:2:0
Bit depth                      : 8 bits
Scan type                      : Progressive
Scan order                     : Bottom Field First
Compression mode               : Lossy
Bits/(Pixel*Frame)             : 0.556
Time code of first frame       : 01:00:00:00
Time code source               : Group of pictures header
GOP, Open/Closed               : Open
GOP, Open/Closed of first fram : Closed
Stream size                    : 966 MiB (94%)

Audio
ID                             : 189 (0xBD)-128 (0x80)
Format                         : AC-3
Format/Info                    : Audio Coding 3
Format settings, Endianness    : Big
Muxing mode                    : DVD-Video
Duration                       : 23 min 25 s
Bit rate mode                  : Constant
Bit rate                       : 224 kb/s
Channel(s)                     : 2 channels
Channel positions              : Front: L R
Sampling rate                  : 48.0 kHz
Frame rate                     : 31.250 FPS (1536 spf)
Bit depth                      : 16 bits
Compression mode               : Lossy
Stream size                    : 37.5 MiB (4%)
Service kind                   : Complete Main

Menu
Код: Выделить всё
General
Complete name                  : F:\CONCERT\Death Angel - Sonic German Beatdown (Live In Germany) 2009\VIDEO_TS\VTS_02_1.VOB
Format                         : MPEG-PS
File size                      : 1 024 MiB
Duration                       : 8 min 34 s
Overall bit rate mode          : Variable
Overall bit rate               : 16.7 Mb/s

Video
ID                             : 224 (0xE0)
Format                         : MPEG Video
Format version                 : Version 2
Format profile                 : Main@Main
Format settings, BVOP          : Yes
Format settings, Matrix        : Custom
Format settings, GOP           : Variable
Duration                       : 8 min 34 s
Bit rate mode                  : Variable
Bit rate                       : 16.1 Mb/s
Maximum bit rate               : 8 000 kb/s
Width                          : 720 pixels
Height                         : 576 pixels
Display aspect ratio           : 4:3
Frame rate                     : 25.000 FPS
Standard                       : PAL
Color space                    : YUV
Chroma subsampling             : 4:2:0
Bit depth                      : 8 bits
Scan type                      : Progressive
Scan order                     : Bottom Field First
Compression mode               : Lossy
Bits/(Pixel*Frame)             : 1.556
Time code of first frame       : 01:00:00:00
Time code source               : Group of pictures header
GOP, Open/Closed               : Open
GOP, Open/Closed of first fram : Closed
Stream size                    : 990 MiB (97%)

Audio
ID                             : 189 (0xBD)-128 (0x80)
Format                         : AC-3
Format/Info                    : Audio Coding 3
Format settings, Endianness    : Big
Muxing mode                    : DVD-Video
Duration                       : 8 min 34 s
Bit rate mode                  : Constant
Bit rate                       : 224 kb/s
Channel(s)                     : 2 channels
Channel positions              : Front: L R
Sampling rate                  : 48.0 kHz
Frame rate                     : 31.250 FPS (1536 spf)
Bit depth                      : 16 bits
Compression mode               : Lossy
Stream size                    : 13.7 MiB (1%)
Service kind                   : Complete Main

Menu
Title: Death Angel - Sonic German Beatdown (Live In Germany) 2009
Size: 7.82 Gb ( 8 200 344,00 KBytes ) - DVD-9
Enabled regions: 1, 2, 3, 4, 5, 6, 7, 8

VTS_01 :
Play Length: 01:19:00
Video: PAL 16:9 (720x576) VBR, Auto Pan&Scan, Auto Letterboxed
Audio:
Not specified (Dolby AC3, 2 ch)

VTS_02 :
Play Length: 01:42:25
Video: PAL 4:3 (720x576) VBR
Audio:
Not specified (Dolby AC3, 2 ch)

VTS_03 :
Play Length: 00:03:46+00:04:26
Video: PAL 4:3 (720x576) VBR
Audio:
Not specified (Dolby AC3, 2 ch)

VTS_04 :
Play Length: 00:00:26
Video: PAL 4:3 (720x576) VBR
Audio:
Not specified (Dolby AC3, 2 ch)

* Menus Information *

VIDEO_TS Menu
Video:
PAL 4:3 (720x576) VBR
Audio:
Not specified (Dolby AC3, 2 ch)
English Language Unit :
Title Menu

VTS_01 Menu
Video:
PAL 4:3 (720x576) VBR
Audio:
Not specified (Dolby AC3, 2 ch)
English Language Unit :
Root Menu

VTS_02 Menu
Video:
PAL 4:3 (720x576) VBR
Audio:
Not specified (Dolby AC3, 2 ch)
English Language Unit :
Root Menu

VTS_03 Menu
Video:
PAL 4:3 (720x576) VBR
English Language Unit :
Root Menu

VTS_04 Menu
Video:
PAL 4:3 (720x576) VBR
English Language Unit :
Root Menu

Скриншоты Rock Hard 2007:


Скриншоты Live Factory 2008:



Время раздачи: Круглосуточно (до появления первых 3-5 скачавших)
Не забывайте говорить Спасибо. Не уходите с раздачи!   
Торрент: Зарегистрирован [24 янв 2018, 17:33] Для скачивания .torrent
необходима регистрация
Или скачать с помощью
MediaGet
Статус:
Проверен
 
.torrent скачан: 0 раз
Хэш: 4fd1ecc41a3740a3c945e652b451c2b0750b18f1
Размер: 7.82 ГБ (8 397 152 256 байт)
   Стать Автором раздачи
   
Цитата

Вернуться в Concert Recording

Кто сейчас на конференции

Сейчас эту тему просматривают: нет зарегистрированных пользователей и гости: 1