Unknown Artists. Verdi – La Traviata (2000) [FLAC 2.0|48/24|image+.cue|MC-Rip] <Classical, Opera>

 Статистика раздачи 
Размер: 772.72 МБ   |  Зарегистрирован: 11 ноя 2018, 04:25   |   .torrent скачан: 0 раз
Сидеров: 3  [ 0 байт/сек ]     Личеров: 1  [ 0 байт/сек ]  
  
Аватара пользователя
Я на сайте
 
Раздал: 3.61 ТБ
Скачал: 100.65 ГБ
Ратио: 36.766
Сообщения: 200856
Стаж: 1 год 8 месяцев 24 дня

Verdi – La Traviata (2000)

Автор рипа: samopal records
Жанр: Classical, Opera
Продолжительность: 01:10:04
Издание: Tring International (Europe)
Номер по каталогу: SYMO79
Кодек: FLAC2.0
Формат записи: 24/96
Формат раздачи: 24/48
Реальные значения DR: DR11
Источник: Cassette, Album
Треклист:
Side A:
01 Overture
02 Libiamo Ne' Lieti Calici
03 Un Di' Felice, Eterea (Duet)
04 E' Strano (Scene And Aria)
05 Lunga Da Lei (Scene And Aria)
06 Pura Siccome Un Angelo (Scene And Duet)
Side B:
07 Che Gli Diro'? Chi Men Dar Coraggio
08 Di provenza Il mar (Aria)
09 Avrem Lieta di Mascere
10 Overture To Act Three
11 Addio Del Passato
12 Largo Al Quadrupede
13 Parigi O Cara, Noi Lasceremo (Duet)
Violetta Valery, a courtesan - Soprano
Flora Bervoix, her friend and fellov hostess - Mezzo Soprano
Anina, Violetta's maid - Mezzo Soprano
Alfredo Germont. A young man about town - Tenor
Georgio Germont, his father - Baritone
Gaston. Vicomte de Letoriector Alfredo's friend - Tenor
Baron Douphol. Violetta's protector - Baritone
Marquis d'Obigny, friend of Flora - Bass
Doctor Grenvil. A physician - Bass
Giuseppe, Violetta's Servant - Tenor
Flora's Servant - Bass

Носитель: MC
Код класса состояния MC: VG
Устройство воспроизведения: AKAI GX 95MK2
Фонокорректор: встроенный
АЦП: ESI Juli@
Программа-оцифровщик: Adobe Audition
Обработка: удаление артефактов

Код: Выделить всё
Общее
Полное имя                               : H:\01. Side One.flac
Формат                                   : FLAC
Формат/Информация                        : Free Lossless Audio Codec
Размер файла                             : 468 Мбайт
Продолжительность                        : 42 м.
Режим общего битрейта                    : Переменный
Общий поток                              : 1542 Кбит/сек

Аудио
Формат                                   : FLAC
Формат/Информация                        : Free Lossless Audio Codec
Продолжительность                        : 42 м.
Вид битрейта                             : Переменный
Битрейт                                  : 1542 Кбит/сек
Каналы                                   : 2 канала
Расположение каналов                     : Front: L R
Частота                                  : 48,0 КГц
Битовая глубина                          : 24 бит
Размер потока                            : 468 Мбайт (100%)
Библиотека кодирования                   : libFLAC 1.2.1 (UTC 2007-09-17)

Общее
Полное имя                               : H:\02. Side Two.flac
Формат                                   : FLAC
Формат/Информация                        : Free Lossless Audio Codec
Размер файла                             : 300 Мбайт
Продолжительность                        : 27 м.
Режим общего битрейта                    : Переменный
Общий поток                              : 1517 Кбит/сек

Аудио
Формат                                   : FLAC
Формат/Информация                        : Free Lossless Audio Codec
Продолжительность                        : 27 м.
Вид битрейта                             : Переменный
Битрейт                                  : 1517 Кбит/сек
Каналы                                   : 2 канала
Расположение каналов                     : Front: L R
Частота                                  : 48,0 КГц
Битовая глубина                          : 24 бит
Размер потока                            : 300 Мбайт (100%)
Библиотека кодирования                   : libFLAC 1.2.1 (UTC 2007-09-17)
Код: Выделить всё
foobar2000 1.1.3 / Dynamic Range Meter 1.1.1
log date: 2018-11-11 06:36:38

--------------------------------------------------------------------------------
Analyzed: Unknown Artists / Verdi – La Traviata
--------------------------------------------------------------------------------

DR         Peak         RMS     Duration Track
--------------------------------------------------------------------------------
DR11      -3.36 dB   -19.22 dB      3:55 ?-01 Overture
DR10       0.00 dB   -13.87 dB      3:11 ?-02 Libiamo Ne' Lieti Calici
DR9       -1.15 dB   -15.68 dB      3:30 ?-03 Un Di' Felice, Eterea (Duet)
DR10       0.00 dB   -16.28 dB      9:04 ?-04 E' Strano (Scene And Aria)
DR10      -0.85 dB   -16.34 dB      4:03 ?-05 Lunga Da Lei (Scene And Aria)
DR12      -0.52 dB   -17.59 dB     18:43 ?-06 Pura Siccome Un Angelo (Scene And Duet)
DR9       -3.48 dB   -17.00 dB      3:09 ?-07 Che Gli Diro'? Chi Men Dar Coraggio
DR10      -3.28 dB   -18.86 dB      4:40 ?-08 Di provenza Il mar (Aria)
DR12      -0.10 dB   -17.49 dB      6:40 ?-09 Avrem Lieta di Mascere
DR13      -4.19 dB   -23.55 dB      3:41 ?-10 Overture To Act Three
DR11      -3.12 dB   -20.18 dB      4:49 ?-11 Addio Del Passato
DR10      -3.41 dB   -15.49 dB      0:57 ?-12 Largo Al Quadrupede
DR10      -2.73 dB   -17.00 dB      3:41 ?-13 Parigi O Cara, Noi Lasceremo (Duet)
--------------------------------------------------------------------------------

Number of tracks:  13
Official DR value: DR11

Samplerate:        48000 Hz
Channels:          2
Bits per sample:   24
Bitrate:           1517 kbps
Codec:             FLAC
================================================================================

Код: Выделить всё
REM GENRE "Classical, Opera"
REM DATE "2000"
REM COMMENT "Cassette, Compilation, Tring International MC – SYM079, Europe"
PERFORMER "Unknown Artists"
TITLE "Verdi – La Traviata"
FILE "01. Side One.flac" WAVE
  TRACK 01 AUDIO
    TITLE "01 Overture"
    INDEX 01 00:00:00
  TRACK 02 AUDIO
    TITLE "02 Libiamo Ne' Lieti Calici"
    INDEX 01 03:55:32
  TRACK 03 AUDIO
    TITLE "03 Un Di' Felice, Eterea (Duet)"
    INDEX 01 07:06:58
  TRACK 04 AUDIO
    TITLE "04 E' Strano (Scene And Aria)"
    INDEX 01 10:36:56
  TRACK 05 AUDIO
    TITLE "05 Lunga Da Lei (Scene And Aria)"
    INDEX 01 19:40:69
  TRACK 06 AUDIO
    TITLE "06 Pura Siccome Un Angelo (Scene And Duet)"
    INDEX 01 23:43:55
FILE "02. Side Two.flac" WAVE
  TRACK 07 AUDIO
    TITLE "07 Che Gli Diro'? Chi Men Dar Coraggio"
    INDEX 01 00:00:00
  TRACK 08 AUDIO
    TITLE "08 Di provenza Il mar (Aria)"
    INDEX 01 03:08:59
  TRACK 09 AUDIO
    TITLE "09 Avrem Lieta di Mascere"
    INDEX 01 07:48:43
  TRACK 10 AUDIO
    TITLE "10 Overture To Act Three"
    INDEX 01 14:28:23
  TRACK 11 AUDIO
    TITLE "11 Addio Del Passato"
    INDEX 01 18:09:57
  TRACK 12 AUDIO
    TITLE "12 Largo Al Quadrupede"
    INDEX 01 22:59:18
  TRACK 13 AUDIO
    TITLE "13 Parigi O Cara, Noi Lasceremo (Duet)"
    INDEX 01 23:56:27

Время раздачи:
По выходным дням (до появления первых 3-5 скачавших)
Не забывайте говорить Спасибо. Не уходите с раздачи!   
Торрент: Зарегистрирован [11 ноя 2018, 04:25] Для скачивания .torrent
необходима регистрация
Или скачать с помощью
MediaGet
Статус:
Проверен
 
.torrent скачан: 0 раз
Хэш: e3c8b317dcef3fb23c92e2f815ae7d860439d942
Размер: 772.72 МБ (810 253 649 байт)
   Стать Автором раздачи
   
Цитата
  • Похожие торренты
    Ответы
    Просмотры
    Последнее сообщение

Вернуться в Vinyl-Rip и Hand-Made

Кто сейчас на конференции

Сейчас эту тему просматривают: нет зарегистрированных пользователей и гости: 1