VA - Сергей Рахманинов - Золотая коллекция (1999) [FLAC 2.0|48/24|image+.cue|MC-Rip] <Classical, Neo-Classical, Romantic>

 Статистика раздачи 
Размер: 791.89 МБ   |  Зарегистрирован: 10 ноя 2018, 07:09   |   .torrent скачан: 0 раз
Сидеров: 2  [ 0 байт/сек ]     Личеров: 1  [ 0 байт/сек ]  
  
Аватара пользователя
Я на сайте
 
Раздал: 3.61 ТБ
Скачал: 100.65 ГБ
Ратио: 36.763
Сообщения: 200856
Стаж: 1 год 8 месяцев 24 дня

VA - Сергей Рахманинов - Золотая коллекция (1999)

Автор рипа: samopal records
Жанр: Classical, Neo-Classical, Romantic
Продолжительность: 01:18:23
Издание: AT Music (Russia)
Номер по каталогу: none
Кодек: FLAC2.0
Формат записи: 24/96
Формат раздачи: 24/48
Реальные значения DR: DR10
Источник: Cassette, Compilation
Треклист:
01. 18 Вариаций На Тему Рапсодии Паганини Для Фортепиано с Оркестром соч. 43
02. Итальянская Полька Для Фортепиано в Четыре Руки
Концерт Для Фортепиано с Оркестром №2 соч. 18
03. I Allegro Moderato
04. II Largo
05. III Allegro Vivace
06. Прелюдия соч. 3 №2
Сюита Из Оперы «Алеко»
07. Prelude
08. Cavatina
09. Intermezzo
10. Цыганский Танец
11. Симфонический Танец №3 соч. 45
===========================
Композитор – Сергей Рахманинов
Дирижёры – Р. Райчев (tracks: 01, 07 to 11), Ж. П. Веллез (tracks: 03 to 05)
Оркестры – Симфонический Оркестр Болгарского Радио (tracks: 01, 03 to 05),
Пловдивский Филармонический Оркестр (tracks: 07 to 11)
Фортепиано – Н. Евров (track 01), М. Джонс, Р. Макмахон (track 02),
И. Дреников (tracks 03, 04, 05)М. Джонс (track 06)
Bass Vocals – Н. Гуселев (track 08)
Носитель: MC
Код класса состояния MC: VG
Устройство воспроизведения: AKAI GX 95MK2
Фонокорректор: встроенный
АЦП: ESI Juli@
Программа-оцифровщик: Adobe Audition
Обработка: удаление артефактов

Код: Выделить всё
Общее
Полное имя                               : H:\02. Сторона В.flac
Формат                                   : FLAC
Формат/Информация                        : Free Lossless Audio Codec
Размер файла                             : 390 Мбайт
Продолжительность                        : 38 м.
Режим общего битрейта                    : Переменный
Общий поток                              : 1407 Кбит/сек

Аудио
Формат                                   : FLAC
Формат/Информация                        : Free Lossless Audio Codec
Продолжительность                        : 38 м.
Вид битрейта                             : Переменный
Битрейт                                  : 1407 Кбит/сек
Каналы                                   : 2 канала
Расположение каналов                     : Front: L R
Частота                                  : 48,0 КГц
Битовая глубина                          : 24 бит
Размер потока                            : 390 Мбайт (100%)
Библиотека кодирования                   : libFLAC 1.2.1 (UTC 2007-09-17)

Общее
Полное имя                               : H:\01. Сторона А.flac
Формат                                   : FLAC
Формат/Информация                        : Free Lossless Audio Codec
Размер файла                             : 397 Мбайт
Продолжительность                        : 39 м.
Режим общего битрейта                    : Переменный
Общий поток                              : 1401 Кбит/сек

Аудио
Формат                                   : FLAC
Формат/Информация                        : Free Lossless Audio Codec
Продолжительность                        : 39 м.
Вид битрейта                             : Переменный
Битрейт                                  : 1401 Кбит/сек
Каналы                                   : 2 канала
Расположение каналов                     : Front: L R
Частота                                  : 48,0 КГц
Битовая глубина                          : 24 бит
Размер потока                            : 397 Мбайт (100%)
Библиотека кодирования                   : libFLAC 1.2.1 (UTC 2007-09-17)
Код: Выделить всё
foobar2000 1.1.3 / Dynamic Range Meter 1.1.1
log date: 2018-11-09 12:30:17

--------------------------------------------------------------------------------
Analyzed: Various Artists / Рахманинов – Золотая Коллекция
--------------------------------------------------------------------------------

DR         Peak         RMS     Duration Track
--------------------------------------------------------------------------------
DR8       -0.10 dB   -13.68 dB      3:21 ?-01. 18 Вариаций На Тему Рапсодии Паганини Для Фортепиано с Оркестром соч. 43
DR9       -1.49 dB   -13.74 dB      2:05 ?-02. Итальянская Полька Для Фортепиано в Четыре Руки
DR10      -0.95 dB   -16.55 dB     11:04 ?-03. I Allegro Moderato (Концерт Для Фортепиано с Оркестром №2 соч. 18)
DR13      -1.68 dB   -21.26 dB     11:28 ?-04. II Largo (Концерт Для Фортепиано с Оркестром №2 соч. 18)
DR10      -0.10 dB   -15.38 dB     11:38 ?-05. III Allegro Vivace (Концерт Для Фортепиано с Оркестром №2 соч. 18)
DR8       -0.46 dB   -13.57 dB      4:28 ?-06. Прелюдия соч. 3 №2
DR11      -1.21 dB   -17.55 dB      2:58 ?-07. Prelude (Сюита Из Оперы «Алеко»)
DR10      -1.82 dB   -17.82 dB      5:50 ?-08. Cavatina (Сюита Из Оперы «Алеко»)
DR9       -2.88 dB   -17.50 dB      2:36 ?-09. Intermezzo (Сюита Из Оперы «Алеко»)
DR13      -0.45 dB   -19.89 dB      8:53 ?-10. Цыганский Танец (Сюита Из Оперы «Алеко»)
DR11      -0.10 dB   -15.97 dB     14:02 ?-11. Симфонический Танец №3 соч. 45
--------------------------------------------------------------------------------

Number of tracks:  11
Official DR value: DR10

Samplerate:        48000 Hz
Channels:          2
Bits per sample:   24
Bitrate:           1407 kbps
Codec:             FLAC
================================================================================

Код: Выделить всё
REM GENRE "Classical, Neo-Classical, Romantic"
REM DATE "1999"
REM COMMENT "Cassette, Compilation, AT Music – none, Russia"
PERFORMER "Various Artists"
TITLE "Рахманинов – Золотая Коллекция"
FILE "01. Сторона А.flac" WAVE
  TRACK 01 AUDIO
    TITLE "01. 18 Вариаций На Тему Рапсодии Паганини Для Фортепиано с Оркестром соч. 43"
    INDEX 01 00:00:00
  TRACK 02 AUDIO
    TITLE "02. Итальянская Полька Для Фортепиано в Четыре Руки"
    INDEX 01 03:20:54
  TRACK 03 AUDIO
    TITLE "03. I Allegro Moderato (Концерт Для Фортепиано с Оркестром №2 соч. 18)"
    INDEX 01 05:25:50
  TRACK 04 AUDIO
    TITLE "04. II Largo (Концерт Для Фортепиано с Оркестром №2 соч. 18)"
    INDEX 01 16:29:19
  TRACK 05 AUDIO
    TITLE "05. III Allegro Vivace (Концерт Для Фортепиано с Оркестром №2 соч. 18)"
    INDEX 01 27:56:74
FILE "02. Сторона В.flac" WAVE
  TRACK 06 AUDIO
    TITLE "06. Прелюдия соч. 3 №2"
    INDEX 01 00:00:00
  TRACK 07 AUDIO
    TITLE "07. Prelude (Сюита Из Оперы «Алеко»)"
    INDEX 01 04:28:05
  TRACK 08 AUDIO
    TITLE "08. Cavatina (Сюита Из Оперы «Алеко»)"
    INDEX 01 07:26:28
  TRACK 09 AUDIO
    TITLE "09. Intermezzo (Сюита Из Оперы «Алеко»)"
    INDEX 01 13:16:48
  TRACK 10 AUDIO
    TITLE "10. Цыганский Танец (Сюита Из Оперы «Алеко»)"
    INDEX 01 15:52:63
  TRACK 11 AUDIO
    TITLE "11. Симфонический Танец №3 соч. 45"
    INDEX 01 24:45:49

Время раздачи:
По выходным дням (до появления первых 3-5 скачавших)
Не забывайте говорить Спасибо. Не уходите с раздачи!   
Торрент: Зарегистрирован [10 ноя 2018, 07:09] Для скачивания .torrent
необходима регистрация
Или скачать с помощью
MediaGet
Статус:
Проверен
 
.torrent скачан: 0 раз
Хэш: 5decad830d1dcfb61844782748eb1f18428c8684
Размер: 791.89 МБ (830 354 264 байт)
   Стать Автором раздачи
   
Цитата

Вернуться в Vinyl-Rip и Hand-Made

Кто сейчас на конференции

Сейчас эту тему просматривают: нет зарегистрированных пользователей и гости: 1