The Camerata Romana, Eugen Duvier Conducting - Vivaldi - Famous Concerti (2000) [FLAC 2.0|48/24|image+.cue|MC-Rip] <Classical>

 Статистика раздачи 
Размер: 664.9 МБ   |  Зарегистрирован: 09 ноя 2018, 06:21   |   .torrent скачан: 0 раз
Сидеров: 5  [ 0 байт/сек ]     Личеров: 1  [ 0 байт/сек ]  
  
Аватара пользователя
Я на сайте
 
Раздал: 3.58 ТБ
Скачал: 100.65 ГБ
Ратио: 36.447
Сообщения: 200445
Стаж: 1 год 8 месяцев 21 день

The Camerata Romana, Eugen Duvier Conducting - Vivaldi - Famous Concerti (2000)

Автор рипа: samopal records
Жанр: Classical
Продолжительность: 00:54:48
Издание: Tring International (Europ)
Номер по каталогу: SYMO68
Кодек: FLAC2.0
Формат записи: 24/96
Формат раздачи: 24/48
Реальные значения DR: DR11
Источник: Cassette, Compilation
Треклист:
Side A
Concerto Grosso in C. RV 558
01. Allegro Molto
02. Andante Molto
03. Allegro
Violin Concerto №.5 in E Flat RV 253
04. (Allegro e) Presto
05. Largo
06. Presto
Concerto in A Minor for Flute and Strings RV 108
07.Allegro Molto
08. Largo
09. Allegro Molto

Side B
Concerto in A Minor for Flautino
Strings and Basso Continuo
01.Allegro
02. Larghetto
03. Allegro
Concerto in G Minor for Violin,
Strings And Basso Continuo RV 317
04. Allegro
05. Largo
06. Allegro
Носитель: MC
Код класса состояния MC: VG
Устройство воспроизведения: AKAI GX 95MK2
Фонокорректор: встроенный
АЦП: ESI Juli@
Программа-оцифровщик: Adobe Audition
Обработка: удаление артефактов

Код: Выделить всё
Общее
Полное имя                               : H:\02. Side B.flac
Формат                                   : FLAC
Формат/Информация                        : Free Lossless Audio Codec
Размер файла                             : 293 Мбайт
Продолжительность                        : 24 м.
Режим общего битрейта                    : Переменный
Общий поток                              : 1660 Кбит/сек

Аудио
Формат                                   : FLAC
Формат/Информация                        : Free Lossless Audio Codec
Продолжительность                        : 24 м.
Вид битрейта                             : Переменный
Битрейт                                  : 1660 Кбит/сек
Каналы                                   : 2 канала
Расположение каналов                     : Front: L R
Частота                                  : 48,0 КГц
Битовая глубина                          : 24 бит
Размер потока                            : 293 Мбайт (100%)
Библиотека кодирования                   : libFLAC 1.2.1 (UTC 2007-09-17)

Общее
Полное имя                               : H:\01. Side A.flac
Формат                                   : FLAC
Формат/Информация                        : Free Lossless Audio Codec
Размер файла                             : 366 Мбайт
Продолжительность                        : 30 м.
Режим общего битрейта                    : Переменный
Общий поток                              : 1699 Кбит/сек

Аудио
Формат                                   : FLAC
Формат/Информация                        : Free Lossless Audio Codec
Продолжительность                        : 30 м.
Вид битрейта                             : Переменный
Битрейт                                  : 1699 Кбит/сек
Каналы                                   : 2 канала
Расположение каналов                     : Front: L R
Частота                                  : 48,0 КГц
Битовая глубина                          : 24 бит
Размер потока                            : 366 Мбайт (100%)
Библиотека кодирования                   : libFLAC 1.2.1 (UTC 2007-09-17)
Код: Выделить всё
foobar2000 1.1.3 / Dynamic Range Meter 1.1.1
log date: 2018-11-09 08:43:23

--------------------------------------------------------------------------------
Analyzed: The Camerata Romana, Eugen Duvier Conducting / Vivaldi - Famous Concerti
--------------------------------------------------------------------------------

DR         Peak         RMS     Duration Track
--------------------------------------------------------------------------------
DR11      -1.95 dB   -16.36 dB      6:14 ?-01. Allegro Molto (Concerto Grosso in C. RV 558)
DR14      -3.03 dB   -22.74 dB      2:17 ?-02. Andante Molto (Concerto Grosso in C. RV 558)
DR12      -0.10 dB   -17.35 dB      3:44 ?-03. Allegro (Concerto Grosso in C. RV 558)
DR11      -0.66 dB   -15.79 dB      2:51 ?-04. (Allegro e) Presto (Violin Concerto №.5 in E Flat RV 253)
DR13      -4.18 dB   -21.72 dB      2:27 ?-05. Largo (Violin Concerto №.5 in E Flat RV 253)
DR11      -1.34 dB   -16.63 dB      3:39 ?-06. Presto (Violin Concerto №.5 in E Flat RV 253)
DR11      -3.88 dB   -18.75 dB      3:14 ?-07.Allegro Molto (Concerto in A Minor for Flute and Strings RV 108)
DR8       -2.35 dB   -16.25 dB      2:38 ?-08. Largo (Concerto in A Minor for Flute and Strings RV 108)
DR9       -2.10 dB   -14.84 dB      3:02 ?-09. Allegro Molto (Concerto in A Minor for Flute and Strings RV 108)
DR10      -1.01 dB   -14.92 dB      4:42 ?-01.Allegro (Concerto in A Minor for Flautino Strings and Basso Continuo)
DR8       -2.83 dB   -15.03 dB      2:37 ?-02. Larghetto (Concerto in A Minor for Flautino Strings and Basso Continuo)
DR11      -0.44 dB   -15.67 dB      3:22 ?-03. Allegro (Concerto in A Minor for Flautino Strings and Basso Continuo)
DR12      -0.10 dB   -16.62 dB      4:36 ?-04. Allegro (Concerto in G Minor for Violin, Strings And Basso Continuo RV 317)
DR12      -2.46 dB   -20.95 dB      6:11 ?-05. Largo (Concerto in G Minor for Violin, Strings And Basso Continuo RV 317)
DR13      -0.10 dB   -17.02 dB      3:15 ?-06. Allegro (Concerto in G Minor for Violin, Strings And Basso Continuo RV 317)
--------------------------------------------------------------------------------

Number of tracks:  15
Official DR value: DR11

Samplerate:        48000 Hz
Channels:          2
Bits per sample:   24
Bitrate:           1660 kbps
Codec:             FLAC
================================================================================

Код: Выделить всё
REM GENRE "Classical"
REM DATE "2000"
REM COMMENT "Cassette, Compilation, Tring International, MC SYM068, E.E.C."
PERFORMER "The Camerata Romana, Eugen Duvier Conducting"
TITLE "Vivaldi - Famous Concerti"
FILE "01. Side A.flac" WAVE
  TRACK 01 AUDIO
    TITLE "01. Allegro Molto (Concerto Grosso in C. RV 558)"
    INDEX 01 00:00:00
  TRACK 02 AUDIO
    TITLE "02. Andante Molto (Concerto Grosso in C. RV 558)"
    INDEX 01 06:13:40
  TRACK 03 AUDIO
    TITLE "03. Allegro (Concerto Grosso in C. RV 558)"
    INDEX 01 08:30:20
  TRACK 04 AUDIO
    TITLE "04. (Allegro e) Presto (Violin Concerto №.5 in E Flat RV 253)"
    INDEX 01 12:14:06
  TRACK 05 AUDIO
    TITLE "05. Largo (Violin Concerto №.5 in E Flat RV 253)"
    INDEX 01 15:05:25
  TRACK 06 AUDIO
    TITLE "06. Presto (Violin Concerto №.5 in E Flat RV 253)"
    INDEX 01 17:32:61
  TRACK 07 AUDIO
    TITLE "07.Allegro Molto (Concerto in A Minor for Flute and Strings RV 108)"
    INDEX 01 21:11:36
  TRACK 08 AUDIO
    TITLE "08. Largo (Concerto in A Minor for Flute and Strings RV 108)"
    INDEX 01 24:25:68
  TRACK 09 AUDIO
    TITLE "09. Allegro Molto (Concerto in A Minor for Flute and Strings RV 108)"
    INDEX 01 27:03:60
FILE "02. Side B.flac" WAVE
  TRACK 10 AUDIO
    TITLE "01.Allegro (Concerto in A Minor for Flautino Strings and Basso Continuo)"
    INDEX 01 00:00:00
  TRACK 11 AUDIO
    TITLE "02. Larghetto (Concerto in A Minor for Flautino Strings and Basso Continuo)"
    INDEX 01 04:42:11
  TRACK 12 AUDIO
    TITLE "03. Allegro (Concerto in A Minor for Flautino Strings and Basso Continuo)"
    INDEX 01 07:19:48
  TRACK 13 AUDIO
    TITLE "04. Allegro (Concerto in G Minor for Violin, Strings And Basso Continuo RV 317)"
    INDEX 01 10:41:15
  TRACK 14 AUDIO
    TITLE "05. Largo (Concerto in G Minor for Violin, Strings And Basso Continuo RV 317)"
    INDEX 01 15:16:55
  TRACK 15 AUDIO
    TITLE "06. Allegro (Concerto in G Minor for Violin, Strings And Basso Continuo RV 317)"
    INDEX 01 21:27:50

Время раздачи:
По выходным дням (до появления первых 3-5 скачавших)
Не забывайте говорить Спасибо. Не уходите с раздачи!   
Торрент: Зарегистрирован [09 ноя 2018, 06:21] Для скачивания .torrent
необходима регистрация
Или скачать с помощью
MediaGet
Статус:
Проверен
 
.torrent скачан: 0 раз
Хэш: 8872eba9b73a060c86b6d649719b590ea03041d5
Размер: 664.9 МБ (697 193 710 байт)
   Стать Автором раздачи
   
Цитата

Вернуться в Vinyl-Rip и Hand-Made

Кто сейчас на конференции

Сейчас эту тему просматривают: нет зарегистрированных пользователей и гости: 1