(Jazz-Rock, Jazz-Funk) [LP] [16/44] Ricotti And Albuquerque - First Wind - 1971, FLAC (tracks), lossless

 Статистика раздачи 
Размер: 290.42 МБ   |  Зарегистрирован: 09 ноя 2018, 04:09   |   .torrent скачан: 0 раз
Сидеров: 7  [ 0 байт/сек ]     Личеров: 4  [ 0 байт/сек ]  
  
Аватара пользователя
Администратор
Администратор
 
Раздал: 24.48 ТБ
Скачал: 388.83 ГБ
Ратио: 145.353
Сообщения: 6395
Стаж: 8 лет 1 месяц 11 дней
Откуда: Lithuania


Ricotti And Albuquerque - First Wind - 1971

Жанр: Jazz-Rock, Jazz-Funk
Носитель: LP
Страна-производитель диска (релиза): uk
Год издания: 1971
Издатель (лейбл): Pegasus
Номер по каталогу: PEG 2
Страна исполнителя (группы): uk
Аудио кодек: FLAC (*.flac)
Тип рипа: (tracks)
Битрейт аудио: lossless
Формат: VINYL Rip 16bit 44.1khz
Источник оцифровки: Unknown
Устройство воспроизведения: Unknown
Головка звукоснимателя: Unknown
Предварительный усилитель: Unknown
Программа-оцифровщик: Unknown
Наличие сканов в содержимом раздачи: full scans
Продолжительность: 41:56
Источник (релизер): Marios (therockasteria blog)
Трэклист:
1. Ratsa (Don't Know Why) (John Taylor) - 4:45
2. Lo And Behold (James Taylor) - 3:18
3. Go Out And Get It (Michael de Albuquerque) - 3:48
4. Don't You Believe Me (John Taylor, Michael de Albuquerque) - 5:12
5. New York Windy Day (Michael de Albuquerque) - 4:36
6. Bobo's Party (Melanie Safka) - 6:07
7. Didn't Wanna Have To Do It (John Sebastian) - 3:10
8. Old Ben Houston (Michael de Albuquerque) - 3:03
9. The Wind Has No Love (Colin Gleadell, Michael de Albuquerque) - 3:56
10.Give A Damn (Bob Dorough, Stuart Scharf) - 3:57

Код: Выделить всё
foobar2000 1.3.10 / Замер динамического диапазона (DR) 1.1.1
Дата отчёта:  2018-11-06 08:54:40
--------------------------------------------------------------------------------
Анализ:   Kaleidoscope / Kaleidoscope
--------------------------------------------------------------------------------
DR         Пики         RMS           Продолжительность трека
--------------------------------------------------------------------------------
DR11       0.00 дБ   -14.09 дБ      5:55 01-Maiden Voyage
DR12       0.00 дБ   -15.12 дБ      9:52 02-The World Is A Ghetto
DR11       0.00 дБ   -14.52 дБ      6:16 03-As
DR11       0.00 дБ   -14.30 дБ     16:17 04-Kaleidoscope
--------------------------------------------------------------------------------
Количество треков: 4
Реальные значения DR: DR11
Частота:   44100 Гц
Каналов:   2
Разрядность:   24
Битрейт:   1621 кбит/с
Кодек:   FLAC
================================================================================

Michael de Albuquerque was born June 24th, 1947 in Wimbledon and was ELO's bass player and backing vocalist. He worked more as a backing vocalist during live performances than on the albums in addition to being a bass player from July 1972 to September 1974. His first appearance was with the "28 Choir" at the Royal Albert Hall, at the age of nine. He was educated in Worth Abbey, Sussex, and Downside School, Somerset, and his first professional appearance was at the Marquee in London in 1970.
Frank Ricotti (born 13 January 1949 in London England. was into a musical family and followed in his drummer-father’s footsteps by taking up percussion. Educational facilities were limited but fortunately Ricotti came to the attention of Bill Ashton, then a teacher in London. With Ashton’s encouragement, Ricotti was able to extend his studies (and, inspired by Ricotti, Ashton embarked on a project that eventually became the National Youth Jazz Orchestra). Although adept on most percussion instruments, Ricotti concentrated upon the vibraphone and also developed his talents as a composer and arranger. In the late 60s and early 70s Ricotti played and recorded with Neil Ardley, Dave Gelly, Graham Collier, Mike Gibbs, Stan Tracey and Gordon Beck. By the late 70s Ricotti had become established as a studio musician; during the following decade he was deeply involved in the soundtrack music for a succession of popular British television series by Alan Plater, including The Beiderbecke Affair. Also in the 80s he was co-leader, with Chris Laurence and John Taylor, of Paragonne.
Michael de Albuquerque together with Frank Ricotti in 1971 recorded "First Wind" as Ricotti And Albuquerque. Michael who had written most of the material played the guitar on this album and was the lead vocalist. The album was very much influenced by blues and jazz, with a sleeve designed by Jane de Albuquerque, Michael's wife. In addition to his recording with Frank Ricotti, he also earned money as a session musician. Prior to and after the recording sessions for "ELO 2", Michael de Albuquerque recorded his first solo album "We May Be Cattle But We've All Got Names" which was released on RCA in 1973. He had written all the songs, played the piano, guitar, and co-produced the album. "Do Right" was released as a single, but unfortunately it did not make the charts.
*****
Crog Aug 31 2005 4.00 stars
Very rare, this gentle jazzy gem deserves much more acclaim. Frank Riccotti legendary vibes player teamed up with young multi-instrumentalist Mike de Albuquerque and produced something very special. Of special note is the exquisite "Give a Damn", a song so poignant and relevant to modern life, with a killer of a trumpet solo, that it would undoubtedly be a hit today if re-recorded. "Go out and get it" and "Didn't want to have to do it", are other highlights of an overall fine album. De Albuquerque went on to record one of the most under-rated albums of all time, "We May Be Cattle But We've All Got Friends".
Mike de Albuquerque - Guitar, Vocals
Chris Laurence - Bass
John Taylor - Electric Piano
Frank Ricotti - Vibraphone
Trevor Tomkins - Drums

Не забывайте говорить Спасибо. Не уходите с раздачи!   
Торрент: Зарегистрирован [09 ноя 2018, 04:09] Для скачивания .torrent
необходима регистрация
Или скачать с помощью
MediaGet
Статус:
Проверен
 
.torrent скачан: 0 раз
Хэш: ce6536ff174c063324ac6d0ba936a225c02f1577
Размер: 290.42 МБ (304 527 986 байт)
   Стать Автором раздачи
   
Цитата

Вернуться в Vinyl-Rip и Hand-Made

Кто сейчас на конференции

Сейчас эту тему просматривают: нет зарегистрированных пользователей и гости: 1