(Fusion) [LP] [24/44] Robertinho Silva - Bateria - 1983, FLAC (tracks), lossless

 Статистика раздачи 
Размер: 431.72 МБ   |  Зарегистрирован: 09 ноя 2018, 04:03   |   .torrent скачан: 0 раз
Сидеров: 11  [ 0 байт/сек ]     Личеров: 4  [ 0 байт/сек ]  
  
Аватара пользователя
Администратор
Администратор
 
Раздал: 24.48 ТБ
Скачал: 388.83 ГБ
Ратио: 145.352
Сообщения: 6395
Стаж: 8 лет 1 месяц 4 дня
Откуда: Lithuania


Robertinho Silva - Bateria - 1983

Жанр: Fusion
Носитель: LP
Страна-производитель диска (релиза): Brazil
Год издания: 1983
Издатель (лейбл): Carmo
Номер по каталогу: LPC-004
Страна исполнителя (группы): Brazil
Аудио кодек: FLAC (*.flac)
Тип рипа: (tracks)
Битрейт аудио: lossless
Формат: VINYL Rip 24bit 44.1khz
Источник оцифровки: ripped by Mahumachinen & Friends / Record VG+
Устройство воспроизведения: Technics1210mk2
Головка звукоснимателя: Shure M44-7
Предварительный усилитель: DN78 Phantom Valve Analogue Mixer / Custom build analog preamp
Программа-оцифровщик: Prism Sound Orpheus; Ableton; Allenby 114 TA; Minor static & crackling occur here and there
Наличие сканов в содержимом раздачи: full scans, jpeg, 600 dpi
Продолжительность: 41:12
Источник (релизер): REDacted
Трэклист:
A1 – Cara De Palhaço / Bateria (09:20)
A2 – Barra 200 (07:15)
A3 – Balada (04:10)
B1 – Pica-pau (13:10)
B2 – Kalimba (04:50)
B3 – Ginga (01:45)

Код: Выделить всё
foobar2000 1.3.10 / Замер динамического диапазона (DR) 1.1.1
Дата отчёта:  2018-11-06 08:56:11
--------------------------------------------------------------------------------
Анализ:   Robertinho Silva / Bateria
--------------------------------------------------------------------------------
DR         Пики         RMS           Продолжительность трека
--------------------------------------------------------------------------------
DR17      -0.72 дБ   -20.99 дБ      9:28 01-Cara De Palhaço/Bateria
DR15      -1.95 дБ   -19.40 дБ      7:24 02-Barra 200
DR16      -3.34 дБ   -23.25 дБ      4:12 03-Balada
DR15      -0.37 дБ   -18.62 дБ     13:22 04-Pica-pau
DR14      -0.43 дБ   -17.42 дБ      5:02 05-Kalimba
DR13      -0.93 дБ   -17.72 дБ      1:45 06-Ginga
--------------------------------------------------------------------------------
Количество треков: 6
Реальные значения DR: DR15
Частота:   44100 Гц
Каналов:   2
Разрядность:   24
Битрейт:   1670 кбит/с
Кодек:   FLAC
================================================================================

Producer, Mixed By – Egberto Gismonti
Acoustic Bass, Electric Bass – Nico Assumpção
Drums, Percussion, Keyboards – Robertinho Silva
Guitar, Guitar Synthesizer – Ricardo Silveira
Soprano Saxophone, Flute – Nivaldo Ornelas

Не забывайте говорить Спасибо. Не уходите с раздачи!   
Торрент: Зарегистрирован [09 ноя 2018, 04:03] Для скачивания .torrent
необходима регистрация
Или скачать с помощью
MediaGet
Статус:
Проверен
 
.torrent скачан: 0 раз
Хэш: e86a8c9a173114ef2c2011d1bdd90df7365477ed
Размер: 431.72 МБ (452 689 995 байт)
   Стать Автором раздачи
   
Цитата

Вернуться в Vinyl-Rip и Hand-Made

Кто сейчас на конференции

Сейчас эту тему просматривают: нет зарегистрированных пользователей и гости: 1