Формула 1. Сезон 2018. 20-й Этап. Гран-при Бразилии. Гонка (11.11.2018) HDTV [H.264/1080i-LQ]

 Статистика раздачи 
Размер: 8.18 ГБ   |  Зарегистрирован: 12 ноя 2018, 00:30   |   .torrent скачан: 73 раз
Сидеров: 46  [ 0 байт/сек ]     Личеров: 16  [ 0 байт/сек ]  
  
Аватара пользователя
Я на сайте
 
Раздал: 3.65 ТБ
Скачал: 101.21 ГБ
Ратио: 36.978
Сообщения: 201091
Стаж: 1 год 8 месяцев 27 дней

Формула 1. Сезон 2018. 20-й Этап. Гран-при Бразилии.
Гонка (11.11.2018) HDTV [H.264/1080i-LQ]

« 2018 Formula 1 Brazilian Grand Prix »
Телекомпания: Матч ТВ HD
Жанр: Спорт

Комментаторы: Алексей Попов, Наталья Фабричнова

Описание: 11 ноября 2018 года, воскресенье. 20:10 МСК
Формула 1. 20-й Этап сезона 2018 года. Гран-при Бразилии. Сан-Паулу (Бразилия).
Гонка
Кругов:71 - Длина круга:4,309 км
Длина гонки:305,909 км
Арена: Автодром Интерлагос - Жозе Карлос Пасе (Сан-Паулу, Бразилия)

Релиз от: Striker

Продолжительность: 01:58:42
Качество видео: HDTV
Язык озвучки: Русский, Интершум
Субтитры: отсутствуют

Видео: AVC/H.264, 1920x1080 (16:9), ~8989 Kbps
Аудио #1: MP2, 2 ch, 48 kHz, 192 Kbps | Русский
Аудио #2: MP2, 2 ch, 48 kHz, 192 Kbps | Интершум
Код: Выделить всё
Общее
Идентификатор                            : 1 (0x1)
Полное имя                               : F:\SPORT\Формула 1\F1.Round.20.Grande.Premio.do.Brazil.2018.Race.HDTV.1080i.ts
Формат                                   : MPEG-TS
Размер файла                             : 8,18 Гбайт
Продолжительность                        : 1 ч. 58 м.
Режим общего битрейта                    : Переменный
Общий поток                              : 9865 Кбит/сек

Видео
Идентификатор                            : 204 (0xCC)
Идентификатор меню                       : 2204 (0x89C)
Формат                                   : AVC
Формат/Информация                        : Advanced Video Codec
Профиль формата                          : High@L4
Настройки формата                        : CABAC / 4 Ref Frames
Параметр CABAC формата                   : Да
Параметр RefFrames формата               : 4 кадра
Идентификатор кодека                     : 27
Продолжительность                        : 1 ч. 58 м.
Битрейт                                  : 8989 Кбит/сек
Ширина                                   : 1920 пикселей
Высота                                   : 1080 пикселей
Соотношение сторон                       : 16:9
Частота кадров                           : 25,000 кадров/сек
Стандарт вещания                         : Component
Цветовое пространство                    : YUV
Субдискретизация насыщенности            : 4:2:0
Битовая глубина                          : 8 бит
Тип развёртки                            : Чересстрочная
Метод сохранения типа развёртки          : Раздельные поля
Порядок развёртки                        : Верхнее поле первое
Бит/(Пиксели*Кадры)                      : 0.173
Размер потока                            : 7,45 Гбайт (91%)
Цветовой диапазон                        : Limited
Основные цвета                           : BT.709
Характеристики трансфера                 : BT.709
Коэффициенты матрицы                     : BT.709

Аудио #1
Идентификатор                            : 304 (0x130)
Идентификатор меню                       : 2204 (0x89C)
Формат                                   : MPEG Audio
Версия формата                           : Version 1
Профиль формата                          : Layer 2
Идентификатор кодека                     : 3
Продолжительность                        : 1 ч. 58 м.
Вид битрейта                             : Постоянный
Битрейт                                  : 192 Кбит/сек
Каналы                                   : 2 канала
Частота                                  : 48,0 КГц
Частота кадров                           : 41,667 кадра/сек (1152 SPF)
Метод сжатия                             : С потерями
Размер потока                            : 163 Мбайт (2%)
Язык                                     : Russian

Аудио #2
Идентификатор                            : 305 (0x131)
Идентификатор меню                       : 2204 (0x89C)
Формат                                   : MPEG Audio
Версия формата                           : Version 1
Профиль формата                          : Layer 2
Идентификатор кодека                     : 3
Продолжительность                        : 1 ч. 58 м.
Вид битрейта                             : Постоянный
Битрейт                                  : 192 Кбит/сек
Каналы                                   : 2 канала
Частота                                  : 48,0 КГц
Частота кадров                           : 41,667 кадра/сек (1152 SPF)
Метод сжатия                             : С потерями
Размер потока                            : 163 Мбайт (2%)

Скриншоты:




Время раздачи: 24/7 (до появления первых 3-5 скачавших)
Не забывайте говорить Спасибо. Не уходите с раздачи!   
Торрент: Зарегистрирован [12 ноя 2018, 00:30] Для скачивания .torrent
необходима регистрация
Или скачать с помощью
MediaGet
Статус:
Проверен
 
.torrent скачан: 73 раз
Хэш: 4ac5024698343d85ac34920f7902ba65f34d54ad
Размер: 8.18 ГБ (8 782 755 956 байт)
   Стать Автором раздачи
   
Цитата

Вернуться в Формула-1 (2018)

Кто сейчас на конференции

Сейчас эту тему просматривают: нет зарегистрированных пользователей и гости: 1