Формула 1. Сезон 2018. 20-й Этап. Гран-при Бразилии. Свободная практика 1 и 2 (09.11.2018) HDTVRip [H.264/720p-LQ] [hand made 50fps]

 Статистика раздачи 
Размер: 7.94 ГБ   |  Зарегистрирован: 10 ноя 2018, 17:22   |   .torrent скачан: 0 раз
Сидеров: 14  [ 0 байт/сек ]     Личеров: 5  [ 0 байт/сек ]  
  
Аватара пользователя
Я на сайте
 
Раздал: 3.65 ТБ
Скачал: 101.21 ГБ
Ратио: 36.979
Сообщения: 201091
Стаж: 1 год 8 месяцев 27 дней

Формула 1. Сезон 2018. 20-й Этап. Гран-при Бразилии.
Свободная практика 1 и 2 (09.11.2018) HDTVRip [H.264/720p-LQ]

« 2018 Formula 1 Brazilian Grand Prix »
Телекомпания: F1 TV
Жанр: Спорт

Описание: 09 ноября 2018 года, пятница.
Формула 1. 20-й Этап сезона 2018 года. Гран-при Бразилии. Сан-Паулу (Бразилия).
16:00 (мск) — Свободная практика 1
20:00 (мск) — Свободная практика 2
Арена: Автодром Интерлагос - Жозе Карлос Пасе (Сан-Паулу, Бразилия)

Релиз от: Striker

Продолжительность: 01:56:47 — 01:58:24
Качество видео: HDTVRip
Язык озвучки: Интершум, Английский
Субтитры: отсутствуют

Видео: AVC/H.264, 1280x720 (16:9), ~4000 Kbps, 50 fps
Аудио #1: AC3, 6 ch, 48 kHz, 448 Kbps | Интершум
Аудио #2: AC3, 6 ch, 48 kHz, 384 Kbps | Английский (SkySports F1HD)
Код: Выделить всё
Общее
Уникальный идентификатор                 : 328029622941760837253312669754744042631 (0xF6C83514B0B86DEBEE0D7819CE7AF487)
Полное имя                               : F:\SPORT\Формула 1\F1.Round.20.Grande.Premio.do.Brazil.2018.FEED.HDTVRip.720p\Practice1.mkv
Формат                                   : Matroska
Версия формата                           : Version 2
Размер файла                             : 3,94 Гбайт
Продолжительность                        : 1 ч. 56 м.
Общий поток                              : 4829 Кбит/сек
Программа кодирования                    : HandBrake 0.9.9
Библиотека кодирования                   : libmkv 0.6.5

Видео
Идентификатор                            : 1
Формат                                   : AVC
Формат/Информация                        : Advanced Video Codec
Профиль формата                          : [url=http://nnm-club.me/mailto:High@L4.1]High@L4.1[/url]
Настройки формата                        : CABAC / 5 Ref Frames
Параметр CABAC формата                   : Да
Параметр RefFrames формата               : 5 кадров
Идентификатор кодека                     : V_MPEG4/ISO/AVC
Продолжительность                        : 1 ч. 56 м.
Битрейт                                  : 4000 Кбит/сек
Ширина                                   : 1280 пикселей
Высота                                   : 720 пикселей
Соотношение сторон                       : 16:9
Режим частоты кадров                     : Постоянный
Частота кадров                           : 50,000 кадров/сек
Цветовое пространство                    : YUV
Субдискретизация насыщенности            : 4:2:0
Битовая глубина                          : 8 бит
Тип развёртки                            : Прогрессивная
Бит/(Пиксели*Кадры)                      : 0.087
Размер потока                            : 3,18 Гбайт (81%)
Библиотека кодирования                   : x264 core 130 r2273 b3065e6
Настройки программы                      : cabac=1 / ref=5 / deblock=1:0:0 / analyse=0x3:0x113 / me=umh / subme=8 / psy=1 / psy_rd=1.00:0.00 / mixed_ref=1 / me_range=16 / chroma_me=1 / trellis=1 / 8x8dct=1 / cqm=0 / deadzone=21,11 / fast_pskip=1 / chroma_qp_offset=-2 / threads=12 / lookahead_threads=2 / sliced_threads=0 / nr=0 / decimate=1 / interlaced=0 / bluray_compat=0 / constrained_intra=0 / bframes=3 / b_pyramid=2 / b_adapt=2 / b_bias=0 / direct=3 / weightb=1 / open_gop=0 / weightp=2 / keyint=500 / keyint_min=50 / scenecut=40 / intra_refresh=0 / rc_lookahead=50 / rc=abr / mbtree=1 / bitrate=4000 / ratetol=1.0 / qcomp=0.60 / qpmin=0 / qpmax=69 / qpstep=4 / vbv_maxrate=62500 / vbv_bufsize=78125 / nal_hrd=none / ip_ratio=1.40 / aq=1:1.00
Язык                                     : English
Default                                  : Да
Forced                                   : Нет
Цветовой диапазон                        : Limited
Основные цвета                           : BT.709
Характеристики трансфера                 : BT.709
Коэффициенты матрицы                     : BT.709

Аудио #1
Идентификатор                            : 2
Формат                                   : AC-3
Формат/Информация                        : Audio Coding 3
Идентификатор кодека                     : A_AC3
Продолжительность                        : 1 ч. 56 м.
Вид битрейта                             : Постоянный
Битрейт                                  : 448 Кбит/сек
Каналы                                   : 6 каналов
Расположение каналов                     : Front: L C R, Side: L R, LFE
Частота                                  : 48,0 КГц
Частота кадров                           : 31,250 кадров/сек (1536 SPF)
Битовая глубина                          : 16 бит
Метод сжатия                             : С потерями
Размер потока                            : 374 Мбайт (9%)
ServiceKind/String                       : Complete Main
Default                                  : Да
Forced                                   : Нет

Аудио #2
Идентификатор                            : 3
Формат                                   : AC-3
Формат/Информация                        : Audio Coding 3
Идентификатор кодека                     : A_AC3
Продолжительность                        : 1 ч. 56 м.
Вид битрейта                             : Постоянный
Битрейт                                  : 384 Кбит/сек
Каналы                                   : 6 каналов
Расположение каналов                     : Front: L C R, Side: L R, LFE
Частота                                  : 48,0 КГц
Частота кадров                           : 31,250 кадров/сек (1536 SPF)
Битовая глубина                          : 16 бит
Метод сжатия                             : С потерями
Размер потока                            : 321 Мбайт (8%)
Язык                                     : English
ServiceKind/String                       : Complete Main
Default                                  : Нет
Forced                                   : Нет
Код: Выделить всё
Общее
Уникальный идентификатор                 : 225113901232162546324811890885982084199 (0xA95B5C3E761DFC8D5DFB81599D26DC67)
Полное имя                               : F:\SPORT\Формула 1\F1.Round.20.Grande.Premio.do.Brazil.2018.FEED.HDTVRip.720p\Practice2.mkv
Формат                                   : Matroska
Версия формата                           : Version 2
Размер файла                             : 4,00 Гбайт
Продолжительность                        : 1 ч. 58 м.
Общий поток                              : 4833 Кбит/сек
Программа кодирования                    : HandBrake 0.9.9
Библиотека кодирования                   : libmkv 0.6.5

Видео
Идентификатор                            : 1
Формат                                   : AVC
Формат/Информация                        : Advanced Video Codec
Профиль формата                          : [url=http://nnm-club.me/mailto:High@L4.1]High@L4.1[/url]
Настройки формата                        : CABAC / 5 Ref Frames
Параметр CABAC формата                   : Да
Параметр RefFrames формата               : 5 кадров
Идентификатор кодека                     : V_MPEG4/ISO/AVC
Продолжительность                        : 1 ч. 58 м.
Битрейт                                  : 4000 Кбит/сек
Ширина                                   : 1280 пикселей
Высота                                   : 720 пикселей
Соотношение сторон                       : 16:9
Режим частоты кадров                     : Постоянный
Частота кадров                           : 50,000 кадров/сек
Цветовое пространство                    : YUV
Субдискретизация насыщенности            : 4:2:0
Битовая глубина                          : 8 бит
Тип развёртки                            : Прогрессивная
Бит/(Пиксели*Кадры)                      : 0.087
Размер потока                            : 3,23 Гбайт (81%)
Библиотека кодирования                   : x264 core 130 r2273 b3065e6
Настройки программы                      : cabac=1 / ref=5 / deblock=1:0:0 / analyse=0x3:0x113 / me=umh / subme=8 / psy=1 / psy_rd=1.00:0.00 / mixed_ref=1 / me_range=16 / chroma_me=1 / trellis=1 / 8x8dct=1 / cqm=0 / deadzone=21,11 / fast_pskip=1 / chroma_qp_offset=-2 / threads=12 / lookahead_threads=2 / sliced_threads=0 / nr=0 / decimate=1 / interlaced=0 / bluray_compat=0 / constrained_intra=0 / bframes=3 / b_pyramid=2 / b_adapt=2 / b_bias=0 / direct=3 / weightb=1 / open_gop=0 / weightp=2 / keyint=500 / keyint_min=50 / scenecut=40 / intra_refresh=0 / rc_lookahead=50 / rc=abr / mbtree=1 / bitrate=4000 / ratetol=1.0 / qcomp=0.60 / qpmin=0 / qpmax=69 / qpstep=4 / vbv_maxrate=62500 / vbv_bufsize=78125 / nal_hrd=none / ip_ratio=1.40 / aq=1:1.00
Язык                                     : English
Default                                  : Да
Forced                                   : Нет
Цветовой диапазон                        : Limited
Основные цвета                           : BT.709
Характеристики трансфера                 : BT.709
Коэффициенты матрицы                     : BT.709

Аудио #1
Идентификатор                            : 2
Формат                                   : AC-3
Формат/Информация                        : Audio Coding 3
Идентификатор кодека                     : A_AC3
Продолжительность                        : 1 ч. 58 м.
Вид битрейта                             : Постоянный
Битрейт                                  : 448 Кбит/сек
Каналы                                   : 6 каналов
Расположение каналов                     : Front: L C R, Side: L R, LFE
Частота                                  : 48,0 КГц
Частота кадров                           : 31,250 кадров/сек (1536 SPF)
Битовая глубина                          : 16 бит
Метод сжатия                             : С потерями
Размер потока                            : 379 Мбайт (9%)
ServiceKind/String                       : Complete Main
Default                                  : Да
Forced                                   : Нет

Аудио #2
Идентификатор                            : 3
Формат                                   : AC-3
Формат/Информация                        : Audio Coding 3
Идентификатор кодека                     : A_AC3
Продолжительность                        : 1 ч. 58 м.
Вид битрейта                             : Постоянный
Битрейт                                  : 384 Кбит/сек
Каналы                                   : 6 каналов
Расположение каналов                     : Front: L C R, Side: L R, LFE
Частота                                  : 48,0 КГц
Частота кадров                           : 31,250 кадров/сек (1536 SPF)
Битовая глубина                          : 16 бит
Метод сжатия                             : С потерями
Размер потока                            : 325 Мбайт (8%)
Язык                                     : English
ServiceKind/String                       : Complete Main
Default                                  : Нет
Forced                                   : Нет

Скриншоты:




Время раздачи: 24/7 (круглосуточно около 1 месяца)
Не забывайте говорить Спасибо. Не уходите с раздачи!   
Торрент: Зарегистрирован [10 ноя 2018, 17:22] Для скачивания .torrent
необходима регистрация
Или скачать с помощью
MediaGet
Статус:
Проверен
 
.torrent скачан: 0 раз
Хэш: b7a54e3b44ee0194f00f9d96f3dcb7a430971a33
Размер: 7.94 ГБ (8 520 922 152 байт)
   Стать Автором раздачи
   
Цитата

Вернуться в Формула-1 (2018)

Кто сейчас на конференции

Сейчас эту тему просматривают: нет зарегистрированных пользователей и гости: 1