Кристофер Робин / Christopher Robin (2018) BDRip 1080p от селезень | iTunes

 Статистика раздачи 
Размер: 10.81 ГБ   |  Зарегистрирован: 08 ноя 2018, 22:29   |   .torrent скачан: 24192 раз
Сидеров: 2504  [ 0 байт/сек ]     Личеров: 123  [ 0 байт/сек ]  
  
Аватара пользователя
Главный редактор
Главный редактор
Я на сайте
 
Раздал: 53.86 ТБ
Скачал: 2.6 ТБ
Ратио: 21.163
Сообщения: 157307
Стаж: 8 лет 21 день
Откуда: Санкт-Петербург

Информация о фильме
Название: Кристофер Робин
Оригинальное название: Christopher Robin
Год выхода: 2018
Жанр: ультфильм, мюзикл, фэнтези, драма, комедия, приключения, семейный
Режиссер: Марк Форстер
В ролях: Эван МакГрегор, Хейли Этвелл, Бронте Кармайкл, Марк Гейтисс, Оливер Форд Дейвис, Ронки Адеколуэхо, Эдриан Скарборо, Роджер Эштон-Гриффитс, Кен Нвосу, Джон Даглиш

О фильме: В жизни повзрослевшего Кристофера Робина царит повседневная рутина. Однажды он встречает друга детства - медвежонка Винни. Вместе им предстоит вернуться в Стоакровый лес, чтобы не только отыскать потерявшихся друзей, но и вновь обрести счастье.
Страна: США
Студия: 2DUXІ, Walt Disney Pictures
Продолжительность: 01:43:56
Перевод: Дублированный | iTunes
Качество: BDRip 1080p
Видео: MPEG-4 AVC, 1920x804, 13.0 Mbit/s, 23.976 fps
Звук:
Аудио #01: 48 kHz, AC3, 5.1, 384 Kbps | iTunes | RUS |
Аудио #02: 48 kHz, DTS, 5.1, 1510 Kbps | Оригинал | ENG |
Субтитры: Русские, английские

General
Unique ID : 165161782786278492421288254428393030224 (0x7C410097A08FF1FD916950D0E240C250)
Complete name : D:Video111Christopher.Robin.2018.BDRip.1080p.selezen.mkv
Format : Matroska
Format version : Version 4
File size : 10.8 GiB
Duration : 1 h 43 min
Overall bit rate : 14.9 Mb/s
Movie name : Christopher Robin 2018 from селезень
Encoded date : UTC 2018-11-08 19:25:59
Writing application : mkvmerge v28.2.0 ('The Awakening') 64-bit
Writing library : libebml v1.3.6 + libmatroska v1.4.9
Video
ID : 1
Format : AVC
Format/Info : Advanced Video Codec
Format profile : High@L4.1
Format settings : CABAC / 5 Ref Frames
Format settings, CABAC : Yes
Format settings, ReFrames : 5 frames
Codec ID : V_MPEG4/ISO/AVC
Duration : 1 h 43 min
Bit rate : 13.0 Mb/s
Width : 1 920 pixels
Height : 804 pixels
Display aspect ratio : 2.40:1
Frame rate mode : Constant
Frame rate : 23.976 (24000/1001) FPS
Color space : YUV
Chroma subsampling : 4:2:0
Bit depth : 8 bits
Scan type : Progressive
Bits/(Pixel*Frame) : 0.351
Stream size : 9.43 GiB (87%)
Title : selezen
Writing library : x264 core 148 r2705kMod 3f5ed56
Encoding settings : cabac=1 / ref=5 / deblock=1:-2:-2 / analyse=0x3:0x133 / me=umh / subme=11 / psy=1 / fade_compensate=0.00 / psy_rd=1.05:0.04 / mixed_ref=1 / me_range=48 / chroma_me=1 / trellis=2 / 8x8dct=1 / cqm=0 / deadzone=21,11 / fast_pskip=0 / chroma_qp_offset=-3 / threads=12 / lookahead_threads=2 / sliced_threads=0 / nr=0 / decimate=0 / interlaced=0 / bluray_compat=0 / constrained_intra=0 / fgo=0 / bframes=8 / b_pyramid=2 / b_adapt=2 / b_bias=0 / direct=3 / weightb=1 / open_gop=0 / weightp=2 / keyint=240 / keyint_min=23 / scenecut=40 / intra_refresh=0 / rc_lookahead=50 / rc=2pass / mbtree=0 / bitrate=13000 / ratetol=1.0 / qcomp=0.60 / qpmin=0 / qpmax=51 / qpstep=4 / cplxblur=20.0 / qblur=0.5 / vbv_maxrate=50000 / vbv_bufsize=62500 / nal_hrd=none / filler=0 / ip_ratio=1.40 / pb_ratio=1.30 / aq=3:0.80
Language : English
Default : Yes
Forced : No
Audio #1
ID : 2
Format : AC-3
Format/Info : Audio Coding 3
Commercial name : Dolby Digital
Codec ID : A_AC3
Duration : 1 h 43 min
Bit rate mode : Constant
Bit rate : 384 kb/s
Channel(s) : 6 channels
Channel layout : L R C LFE Ls Rs
Sampling rate : 48.0 kHz
Frame rate : 31.250 FPS (1536 SPF)
Bit depth : 16 bits
Compression mode : Lossy
Stream size : 285 MiB (3%)
Title : iTunes
Language : Russian
Service kind : Complete Main
Default : Yes
Forced : Yes
Audio #2
ID : 3
Format : DTS
Format/Info : Digital Theater Systems
Codec ID : A_DTS
Duration : 1 h 43 min
Bit rate mode : Constant
Bit rate : 1 509 kb/s
Channel(s) : 6 channels
Channel layout : C L R Ls Rs LFE
Sampling rate : 48.0 kHz
Frame rate : 93.750 FPS (512 SPF)
Bit depth : 24 bits
Compression mode : Lossy
Stream size : 1.10 GiB (10%)
Title : Original
Language : English
Default : No
Forced : No
Text #1
ID : 4
Format : UTF-8
Codec ID : S_TEXT/UTF8
Codec ID/Info : UTF-8 Plain Text
Duration : 50 min 28 s
Bit rate : 0 b/s
Count of elements : 2
Stream size : 48.0 Bytes (0%)
Title : Forced
Language : Russian
Default : Yes
Forced : Yes
Text #2
ID : 5
Format : UTF-8
Codec ID : S_TEXT/UTF8
Codec ID/Info : UTF-8 Plain Text
Duration : 1 h 40 min
Bit rate : 107 b/s
Count of elements : 1696
Stream size : 79.2 KiB (0%)
Title : Full
Language : Russian
Default : No
Forced : No
Text #3
ID : 6
Format : UTF-8
Codec ID : S_TEXT/UTF8
Codec ID/Info : UTF-8 Plain Text
Duration : 1 h 40 min
Bit rate : 116 b/s
Count of elements : 2057
Stream size : 86.1 KiB (0%)
Title : SDH
Language : Russian
Default : No
Forced : No
Text #4
ID : 7
Format : UTF-8
Codec ID : S_TEXT/UTF8
Codec ID/Info : UTF-8 Plain Text
Duration : 1 h 39 min
Bit rate : 69 b/s
Count of elements : 1891
Stream size : 50.4 KiB (0%)
Title : Full
Language : English
Default : No
Forced : No
Text #5
ID : 8
Format : UTF-8
Codec ID : S_TEXT/UTF8
Codec ID/Info : UTF-8 Plain Text
Duration : 1 h 40 min
Bit rate : 105 b/s
Count of elements : 2071
Stream size : 77.1 KiB (0%)
Title : SDH
Language : English
Default : No
Forced : No
Menu
00:00:00.000 : :00:00:00.000
00:01:43.729 : :00:01:43.729
00:07:36.289 : :00:07:36.289
00:12:32.919 : :00:12:32.919
00:23:47.843 : :00:23:47.843
00:32:18.186 : :00:32:18.186
00:44:35.673 : :00:44:35.673
00:54:39.526 : :00:54:39.526
00:59:13.800 : :00:59:13.800
01:08:01.703 : :01:08:01.703
01:18:46.180 : :01:18:46.180
01:29:59.769 : :01:29:59.769
01:36:04.467 : :01:36:04.467
01:38:32.031 : :01:38:32.031

Релиз от:
Не забывайте говорить Спасибо. Не уходите с раздачи!   
Торрент: Зарегистрирован [08 ноя 2018, 22:29] Для скачивания .torrent
необходима регистрация
Или скачать с помощью
MediaGet
Статус:
Проверен
 
.torrent скачан: 24192 раз
Хэш: 3e3dac21e22cd6328b7ce1a1b22da1e4b6efdec9
Размер: 10.81 ГБ (11 609 115 764 байт)
   Стать Автором раздачи
   
Цитата

Вернуться в Зарубежное кино (HD Video)

Кто сейчас на конференции

Сейчас эту тему просматривают: нет зарегистрированных пользователей и гости: 1