VA - Man Ray (2001) Mixed, Compilation [FLAC|Lossless|tracks + .cue] <Downtempo>

 Статистика раздачи 
Размер: 484.37 МБ   |  Зарегистрирован: 07 ноя 2018, 19:47   |   .torrent скачан: 0 раз
Сидеров: 2  [ 0 байт/сек ]     Личеров: 2  [ 0 байт/сек ]  
  
Аватара пользователя
 
Раздал: 3.36 ТБ
Скачал: 63.98 ГБ
Ратио: 53.828
Сообщения: 197205
Стаж: 1 год 7 месяцев 29 дней

VA - Man Ray (2001) Mixed, Compilation

Жанр: Downtempo
Издание: Milan - 73138 35940-2
Продолжительность: 01:17:49

Кодек: FLAC
Битрейт: Lossless
Тип рипа: tracks + .cue

Треклист:
01. dZihan & Kamien - Dampfschiff (02:49)
02. Nitin Sawhney - Letting Go (04:45)
03. Kinobe - Slip Into Something More Comfortable (04:47)
04. Sven van Hees - Seasonal Bounty (Smooth '94) (04:37)
05. The Amalgamation of Soundz - Droplets (04:42)
06. Esthero - Superheroes (03:52)
07. Ravi Harris & The Prophets - Path of the Blazing Sarong (03:03)
08. Butti 49 - Brazilikum (05:04)
09. Azymuth - Cuica Laranja Azeda (Sour Orange Cuica) (06:34)
10. Georg Levin - When I'm With You (05:41)
11. Lemon Jelly - A Tune for Jack (04:45)
12. Universal Principles - Latin Stroll (06:35)
13. Nickodemus - Cleopatra in New York (feat. Carol C) (04:25)
14. Ivory Club - Taj' (05:33)
15. Buscemi - Ramiro's Theme (10:32)
Код: Выделить всё
Exact Audio Copy V1.3 from 2. September 2016

EAC extraction logfile from 10. March 2018, 18:17

Various Artists / Man Ray

Used drive  : PIONEER DVD-RW  DVR-116D   Adapter: 1  ID: 0

Read mode               : Secure
Utilize accurate stream : Yes
Defeat audio cache      : Yes
Make use of C2 pointers : No

Read offset correction                      : 96
Overread into Lead-In and Lead-Out          : No
Fill up missing offset samples with silence : Yes
Delete leading and trailing silent blocks   : No
Null samples used in CRC calculations       : Yes
Used interface                              : Native Win32 interface for Win NT & 2000
Gap handling                                : Appended to previous track

Used output format              : User Defined Encoder
Selected bitrate                : 768 kBit/s
Quality                         : High
Add ID3 tag                     : No
Command line compressor         : C:\Program Files\Exact Audio Copy\FLAC\FLAC.EXE
Additional command line options : -6 -V -T "ARTIST=%artist%" -T "TITLE=%title%" -T "ALBUM=%albumtitle%" -T "DATE=%year%" -T "TRACKNUMBER=%tracknr%" -T "GENRE=%genre%" -T "COMMENT=%comment%" -T "BAND=%albuminterpret%" -T "ALBUMARTIST=%albuminterpret%" -T "COMPOSER=%composer%" %haslyrics%--tag-from-file=LYRICS="%lyricsfile%"%haslyrics% -T "DISCNUMBER=%cdnumber%" -T "TOTALDISCS=%totalcds%" -T "TOTALTRACKS=%numtracks%" %hascover%--picture="%coverfile%"%hascover% %source% -o %dest%

TOC of the extracted CD

     Track |   Start  |  Length  | Start sector | End sector
    ---------------------------------------------------------
        1  |  0:00.00 |  2:49.20 |         0    |    12694
        2  |  2:49.20 |  4:45.11 |     12695    |    34080
        3  |  7:34.31 |  4:47.02 |     34081    |    55607
        4  | 12:21.33 |  4:37.15 |     55608    |    76397
        5  | 16:58.48 |  4:42.03 |     76398    |    97550
        6  | 21:40.51 |  3:52.21 |     97551    |   114971
        7  | 25:32.72 |  3:03.00 |    114972    |   128696
        8  | 28:35.72 |  5:04.20 |    128697    |   151516
        9  | 33:40.17 |  6:34.27 |    151517    |   181093
       10  | 40:14.44 |  5:41.52 |    181094    |   206720
       11  | 45:56.21 |  4:45.64 |    206721    |   228159
       12  | 50:42.10 |  6:35.29 |    228160    |   257813
       13  | 57:17.39 |  4:25.51 |    257814    |   277739
       14  | 61:43.15 |  5:33.60 |    277740    |   302774
       15  | 67:17.00 | 10:32.42 |    302775    |   350216

Track  1

     Filename G:\Muzak - FLAC\VA - Man Ray (2001)\01 - dZihan & Kamien - Dampfschiff.wav

     Pre-gap length  0:00:02.00

     Peak level 100.0 %
     Extraction speed 4.4 X
     Track quality 100.0 %
     Test CRC 6093C3CA
     Copy CRC 6093C3CA
     Accurately ripped (confidence 6)  [602E5A31]  (AR v2)
     Copy OK

Track  2

     Filename G:\Muzak - FLAC\VA - Man Ray (2001)\02 - Nitin Sawhney - Letting Go.wav

     Peak level 97.7 %
     Extraction speed 5.1 X
     Track quality 100.0 %
     Test CRC 2BE90311
     Copy CRC 2BE90311
     Accurately ripped (confidence 6)  [C4165732]  (AR v2)
     Copy OK

Track  3

     Filename G:\Muzak - FLAC\VA - Man Ray (2001)\03 - Kinobe - Slip Into Something More Comfortable.wav

     Peak level 100.0 %
     Extraction speed 5.5 X
     Track quality 100.0 %
     Test CRC 2B638CEC
     Copy CRC 2B638CEC
     Accurately ripped (confidence 6)  [C6E4035B]  (AR v2)
     Copy OK

Track  4

     Filename G:\Muzak - FLAC\VA - Man Ray (2001)\04 - Sven van Hees - Seasonal Bounty (Smooth '94).wav

     Peak level 100.0 %
     Extraction speed 5.3 X
     Track quality 99.9 %
     Test CRC 865455E9
     Copy CRC 865455E9
     Accurately ripped (confidence 6)  [477F6E73]  (AR v2)
     Copy OK

Track  5

     Filename G:\Muzak - FLAC\VA - Man Ray (2001)\05 - The Amalgamation of Soundz - Droplets.wav

     Peak level 100.0 %
     Extraction speed 6.3 X
     Track quality 100.0 %
     Test CRC 190FC80E
     Copy CRC 190FC80E
     Accurately ripped (confidence 6)  [22AC94D3]  (AR v2)
     Copy OK

Track  6

     Filename G:\Muzak - FLAC\VA - Man Ray (2001)\06 - Esthero - Superheroes.wav

     Peak level 100.0 %
     Extraction speed 6.4 X
     Track quality 100.0 %
     Test CRC 3F7C0269
     Copy CRC 3F7C0269
     Accurately ripped (confidence 6)  [0A48B470]  (AR v2)
     Copy OK

Track  7

     Filename G:\Muzak - FLAC\VA - Man Ray (2001)\07 - Ravi Harris & The Prophets - Path of the Blazing Sarong.wav

     Peak level 100.0 %
     Extraction speed 6.4 X
     Track quality 100.0 %
     Test CRC 8141D296
     Copy CRC 8141D296
     Accurately ripped (confidence 6)  [5C25249A]  (AR v2)
     Copy OK

Track  8

     Filename G:\Muzak - FLAC\VA - Man Ray (2001)\08 - Butti 49 - Brazilikum.wav

     Peak level 100.0 %
     Extraction speed 7.0 X
     Track quality 100.0 %
     Test CRC 57B5282C
     Copy CRC 57B5282C
     Accurately ripped (confidence 6)  [ACCE625E]  (AR v2)
     Copy OK

Track  9

     Filename G:\Muzak - FLAC\VA - Man Ray (2001)\09 - Azymuth - Cuica Laranja Azeda (Sour Orange Cuica).wav

     Peak level 100.0 %
     Extraction speed 7.6 X
     Track quality 100.0 %
     Test CRC E3D5E3D0
     Copy CRC E3D5E3D0
     Accurately ripped (confidence 6)  [4929D7DA]  (AR v2)
     Copy OK

Track 10

     Filename G:\Muzak - FLAC\VA - Man Ray (2001)\10 - Georg Levin - When I'm With You.wav

     Peak level 100.0 %
     Extraction speed 7.9 X
     Track quality 100.0 %
     Test CRC 7BC4EF51
     Copy CRC 7BC4EF51
     Accurately ripped (confidence 6)  [9AC4F00F]  (AR v2)
     Copy OK

Track 11

     Filename G:\Muzak - FLAC\VA - Man Ray (2001)\11 - Lemon Jelly - A Tune for Jack.wav

     Peak level 100.0 %
     Extraction speed 7.2 X
     Track quality 99.9 %
     Test CRC B4BEFF54
     Copy CRC B4BEFF54
     Accurately ripped (confidence 6)  [E8EFD234]  (AR v2)
     Copy OK

Track 12

     Filename G:\Muzak - FLAC\VA - Man Ray (2001)\12 - Universal Principles - Latin Stroll.wav

     Peak level 100.0 %
     Extraction speed 7.8 X
     Track quality 99.9 %
     Test CRC 2167ABB9
     Copy CRC 2167ABB9
     Accurately ripped (confidence 6)  [14A6336F]  (AR v2)
     Copy OK

Track 13

     Filename G:\Muzak - FLAC\VA - Man Ray (2001)\13 - Nickodemus - Cleopatra in New York (feat. Carol C).wav

     Peak level 100.0 %
     Extraction speed 6.8 X
     Track quality 99.9 %
     Test CRC 00BDC0A4
     Copy CRC 00BDC0A4
     Accurately ripped (confidence 6)  [619CD997]  (AR v2)
     Copy OK

Track 14

     Filename G:\Muzak - FLAC\VA - Man Ray (2001)\14 - Ivory Club - Taj'.wav

     Peak level 100.0 %
     Extraction speed 8.9 X
     Track quality 100.0 %
     Test CRC 2820663D
     Copy CRC 2820663D
     Accurately ripped (confidence 6)  [386EB046]  (AR v2)
     Copy OK

Track 15

     Filename G:\Muzak - FLAC\VA - Man Ray (2001)\15 - Buscemi - Ramiro's Theme.wav

     Peak level 94.5 %
     Extraction speed 9.8 X
     Track quality 100.0 %
     Test CRC 0DA0BFD4
     Copy CRC 0DA0BFD4
     Accurately ripped (confidence 6)  [57D74565]  (AR v2)
     Copy OK

All tracks accurately ripped

No errors occurred

End of status report

---- CUETools DB Plugin V2.1.6

[CTDB TOCID: 0ytsWS6rPm1Rf4BL8o_crPzk8bo-] found
Submit result: 0ytsWS6rPm1Rf4BL8o_crPzk8bo- has been confirmed
Track | CTDB Status
  1   | (23/24) Accurately ripped
  2   | (22/24) Accurately ripped
  3   | (22/24) Accurately ripped
  4   | (23/24) Accurately ripped
  5   | (23/24) Accurately ripped
  6   | (23/24) Accurately ripped
  7   | (23/24) Accurately ripped
  8   | (23/24) Accurately ripped
  9   | (22/24) Accurately ripped
 10   | (22/24) Accurately ripped
 11   | (23/24) Accurately ripped
 12   | (21/24) Accurately ripped
 13   | (22/24) Accurately ripped
 14   | (22/24) Accurately ripped
 15   | (20/24) Accurately ripped

==== Log checksum AA023870F112769BBBBF969C30C3E87D57FE74481D73CC41D9CBE3B5A088C4E6 ====
Код: Выделить всё
REM GENRE "electronic, downtempo"
REM DATE 2001
REM DISCID B4123D0F
REM COMMENT "ExactAudioCopy v1.3"
PERFORMER "Various Artists"
TITLE "Man Ray"
REM COMPOSER ""
FILE "01 - dZihan & Kamien - Dampfschiff.wav" WAVE
  TRACK 01 AUDIO
    TITLE "Dampfschiff"
    PERFORMER "dZihan & Kamien"
    REM COMPOSER ""
    INDEX 01 00:00:00
FILE "02 - Nitin Sawhney - Letting Go.wav" WAVE
  TRACK 02 AUDIO
    TITLE "Letting Go"
    PERFORMER "Nitin Sawhney"
    REM COMPOSER ""
    INDEX 01 00:00:00
FILE "03 - Kinobe - Slip Into Something More Comfortable.wav" WAVE
  TRACK 03 AUDIO
    TITLE "Slip Into Something More Comfortable"
    PERFORMER "Kinobe"
    REM COMPOSER ""
    INDEX 01 00:00:00
FILE "04 - Sven van Hees - Seasonal Bounty (Smooth '94).wav" WAVE
  TRACK 04 AUDIO
    TITLE "Seasonal Bounty (Smooth '94)"
    PERFORMER "Sven van Hees"
    REM COMPOSER ""
    INDEX 01 00:00:00
FILE "05 - The Amalgamation of Soundz - Droplets.wav" WAVE
  TRACK 05 AUDIO
    TITLE "Droplets"
    PERFORMER "The Amalgamation of Soundz"
    REM COMPOSER ""
    INDEX 01 00:00:00
FILE "06 - Esthero - Superheroes.wav" WAVE
  TRACK 06 AUDIO
    TITLE "Superheroes"
    PERFORMER "Esthero"
    REM COMPOSER ""
    INDEX 01 00:00:00
FILE "07 - Ravi Harris & The Prophets - Path of the Blazing Sarong.wav" WAVE
  TRACK 07 AUDIO
    TITLE "Path of the Blazing Sarong"
    PERFORMER "Ravi Harris & The Prophets"
    REM COMPOSER ""
    INDEX 01 00:00:00
FILE "08 - Butti 49 - Brazilikum.wav" WAVE
  TRACK 08 AUDIO
    TITLE "Brazilikum"
    PERFORMER "Butti 49"
    REM COMPOSER ""
    INDEX 01 00:00:00
FILE "09 - Azymuth - Cuica Laranja Azeda (Sour Orange Cuica).wav" WAVE
  TRACK 09 AUDIO
    TITLE "Cuica Laranja Azeda (Sour Orange Cuica)"
    PERFORMER "Azymuth"
    REM COMPOSER ""
    INDEX 01 00:00:00
FILE "10 - Georg Levin - When I'm With You.wav" WAVE
  TRACK 10 AUDIO
    TITLE "When I'm With You"
    PERFORMER "Georg Levin"
    REM COMPOSER ""
    INDEX 01 00:00:00
FILE "11 - Lemon Jelly - A Tune for Jack.wav" WAVE
  TRACK 11 AUDIO
    TITLE "A Tune for Jack"
    PERFORMER "Lemon Jelly"
    REM COMPOSER ""
    INDEX 01 00:00:00
FILE "12 - Universal Principles - Latin Stroll.wav" WAVE
  TRACK 12 AUDIO
    TITLE "Latin Stroll"
    PERFORMER "Universal Principles"
    REM COMPOSER ""
    INDEX 01 00:00:00
FILE "13 - Nickodemus - Cleopatra in New York (feat. Carol C).wav" WAVE
  TRACK 13 AUDIO
    TITLE "Cleopatra in New York (feat. Carol C)"
    PERFORMER "Nickodemus"
    REM COMPOSER ""
    INDEX 01 00:00:00
FILE "14 - Ivory Club - Taj'.wav" WAVE
  TRACK 14 AUDIO
    TITLE "Taj'"
    PERFORMER "Ivory Club"
    REM COMPOSER ""
    INDEX 01 00:00:00
FILE "15 - Buscemi - Ramiro's Theme.wav" WAVE
  TRACK 15 AUDIO
    TITLE "Ramiro's Theme"
    PERFORMER "Buscemi"
    REM COMPOSER ""
    INDEX 01 00:00:00
Код: Выделить всё
-----------------------

DON'T MODIFY THIS FILE

-----------------------

PERFORMER: auCDtect Task Manager, ver. 1.6.0 RC1 build 1.6.0.1
Copyright (c) 2008-2010 y-soft. All rights reserved
[url=http://y-soft.org]http://y-soft.org[/url]

ANALYZER: auCDtect: CD records authenticity detector, version 0.8.2
Copyright (c) 2004 Oleg Berngardt. All rights reserved.
Copyright (c) 2004 Alexander Djourik. All rights reserved.

FILE: 13 - Nickodemus - Cleopatra in New York (feat. Carol C).flac
  Size: 30452686 Hash: 0BC4827F56FDD05B2C973A355978C42B Accuracy: -m0
  Conclusion: CDDA 99%
  Signature: 0BB0307A67309A90B462EBE5AF0EFC9DA4811FAA
FILE: 12 - Universal Principles - Latin Stroll.flac
  Size: 42705291 Hash: 8253CD6B06F5ECB09440F55CCFFBD337 Accuracy: -m0
  Conclusion: CDDA 100%
  Signature: D0734869B988B9006248BEA87E4A7C7E2EB22F8D
FILE: 11 - Lemon Jelly - A Tune for Jack.flac
  Size: 33117817 Hash: FB0A39149323B7B391763211467DA729 Accuracy: -m0
  Conclusion: CDDA 100%
  Signature: F2B1F8898F0649DB02E9385A6C9827E7314DFFA1
FILE: 10 - Georg Levin - When I'm With You.flac
  Size: 35067668 Hash: 08127D661F551363D75A77A2412915F3 Accuracy: -m0
  Conclusion: CDDA 100%
  Signature: 14BC8B6E1156D037D3AFC182AC2FA25EB1661305
FILE: 09 - Azymuth - Cuica Laranja Azeda (Sour Orange Cuica).flac
  Size: 47043826 Hash: F812CED8C630F1D6A83A505A8045D2C6 Accuracy: -m0
  Conclusion: CDDA 100%
  Signature: A97C64D85F97ABF5F857560AA1D299A968BA0B62
FILE: 08 - Butti 49 - Brazilikum.flac
  Size: 34294710 Hash: C32F475BC56496073FD175EBC73FF506 Accuracy: -m0
  Conclusion: CDDA 100%
  Signature: AC4B1313EE6582AAF5D34DC539105EA53B1C6910
FILE: 07 - Ravi Harris & The Prophets - Path of the Blazing Sarong.flac
  Size: 21190480 Hash: 1CA25117350E107F918CD6E56A206CA0 Accuracy: -m0
  Conclusion: CDDA 99%
  Signature: DFB4DF1B51B9E7D89C83544210009065AAE88378
FILE: 06 - Esthero - Superheroes.flac
  Size: 21833898 Hash: BFDD5DA093F49D805227E511ECC788F5 Accuracy: -m0
  Conclusion: CDDA 100%
  Signature: 4717F3F15D012310A2AAA9878AB8191BF9EF364F
FILE: 05 - The Amalgamation of Soundz - Droplets.flac
  Size: 27754879 Hash: 31972185FCF928138683A27D9BC29DD9 Accuracy: -m0
  Conclusion: CDDA 100%
  Signature: 55D6087D3EEA0A415DAACD269E8BC2BB97620116
FILE: 04 - Sven van Hees - Seasonal Bounty (Smooth '94).flac
  Size: 32374377 Hash: 0B2861F5844C12E18F62D70E87C0A5E4 Accuracy: -m0
  Conclusion: CDDA 100%
  Signature: A7F670CEE4E7D69E6D3622A3C4F17186265F4080
FILE: 03 - Kinobe - Slip Into Something More Comfortable.flac
  Size: 30576829 Hash: D14FE924ED8367B083A1BDB624253F37 Accuracy: -m0
  Conclusion: CDDA 100%
  Signature: E35AF2F09C9EEDF06C2781F8133F220AFFD9FAE8
FILE: 02 - Nitin Sawhney - Letting Go.flac
  Size: 30183303 Hash: EE3AA0DE562341FCFA2F8ABEA9CC00CA Accuracy: -m0
  Conclusion: CDDA 100%
  Signature: 59CAA60D86914C1FBCB364D11E8896DA53F0BA6F
FILE: 01 - dZihan & Kamien - Dampfschiff.flac
  Size: 15082872 Hash: 2D6846E50F145D6B46005D8FE6D5AEE7 Accuracy: -m0
  Conclusion: CDDA 100%
  Signature: 3DDAE382FA8C100CB2A59E575E47226CD75C97DA
FILE: 15 - Buscemi - Ramiro's Theme.flac
  Size: 60081481 Hash: 8069CD42EA560FAF42E01600CE74A691 Accuracy: -m0
  Conclusion: CDDA 100%
  Signature: 83039A51B4A3A786D735FE6199A4C87E6DD5C803
FILE: 14 - Ivory Club - Taj'.flac
  Size: 35692103 Hash: 3448A312B0B44FBC5CE69908E4723B74 Accuracy: -m0
  Conclusion: CDDA 100%
  Signature: 73127E1E802658C65A023548CAC5F4ADD0BD2B51

#7
Код: Выделить всё
[b]Поглощение/вытеснение [/b]
[b]Только с согласия релизера[/b]
[b][u][i]Pashketan[/b][/i][/u]
Не забывайте говорить Спасибо. Не уходите с раздачи!   
Торрент: Зарегистрирован [07 ноя 2018, 19:47] Для скачивания .torrent
необходима регистрация
Или скачать с помощью
MediaGet
Статус:
Проверен
 
.torrent скачан: 0 раз
Хэш: 3acc4d0b0a1287ea9214b5e51b34604dd4f6ade3
Размер: 484.37 МБ (507 895 459 байт)
   Стать Автором раздачи
   
Цитата
  • Похожие торренты
    Ответы
    Просмотры
    Последнее сообщение

Вернуться в Electronic

Кто сейчас на конференции

Сейчас эту тему просматривают: нет зарегистрированных пользователей и гости: 1