Mozart - The Best Of... (unknown year) [FLAC 2.0|48/24|image+.cue|MC-Rip] <Classical>

 Статистика раздачи 
Размер: 686.36 МБ   |  Зарегистрирован: 02 ноя 2018, 03:19   |   .torrent скачан: 7 раз
Сидеров: 8  [ 0 байт/сек ]     Личеров: 1  [ 0 байт/сек ]  
  
Аватара пользователя
 
Раздал: 1.44 ТБ
Скачал: 26.32 ГБ
Ратио: 55.955
Сообщения: 175329
Стаж: 2 года 4 месяца 17 дней

Mozart - The Best Of...

Автор рипа: samopal records
Жанр: Classical
Продолжительность: 00:58:59
Издание: Арт Классик студия
Страна: Russia
Номер по каталогу: none
Кодек: FLAC2.0
Формат записи: 24/96
Формат раздачи: 24/48
Реальные значения DR: DR13
Источник: Cassette, Compilation
Треклист:
Side A:
01. From Symphony №40 in G minor K 550; Molto Allegro, Menueto allegro
02. From Symphony №29 in A major K 201; Allegro moderato
03. Menuetto from The Divertismento in D major, K 334
04. Sonata №11 in A major K 331 ''Rondo alla Turca''
05. From Symphony 335 in D magor, K 385 ''Haffner''; Menuetto

Side B:
06. Serenade №13 in G major K525 ''Eine Kleine Nachtmusik''; Allegro, Romanza-Andante, Menuetto-Allegretto, Rondo-Allegro
07. The Marriage of Figaro, K492, Overture
08. From Piano Concerto 321 in C major K 467 ''Elvira Madigan''
Носитель: MC
Код класса состояния MC: VG
Устройство воспроизведения: AKAI GX 95MK2
Фонокорректор: встроенный
АЦП: ESI Juli@
Программа-оцифровщик: Adobe Audition
Обработка: удаление артефактов

Код: Выделить всё
Общее
Полное имя                               : H:\01. Side A.flac
Формат                                   : FLAC
Формат/Информация                        : Free Lossless Audio Codec
Размер файла                             : 345 Мбайт
Продолжительность                        : 29 м.
Режим общего битрейта                    : Переменный
Общий поток                              : 1627 Кбит/сек

Аудио
Формат                                   : FLAC
Формат/Информация                        : Free Lossless Audio Codec
Продолжительность                        : 29 м.
Вид битрейта                             : Переменный
Битрейт                                  : 1627 Кбит/сек
Каналы                                   : 2 канала
Расположение каналов                     : Front: L R
Частота                                  : 48,0 КГц
Битовая глубина                          : 24 бит
Размер потока                            : 345 Мбайт (100%)
Библиотека кодирования                   : libFLAC 1.2.1 (UTC 2007-09-17)

Общее
Полное имя                               : H:\02. Side B.flac
Формат                                   : FLAC
Формат/Информация                        : Free Lossless Audio Codec
Размер файла                             : 336 Мбайт
Продолжительность                        : 28 м.
Режим общего битрейта                    : Переменный
Общий поток                              : 1630 Кбит/сек

Аудио
Формат                                   : FLAC
Формат/Информация                        : Free Lossless Audio Codec
Продолжительность                        : 28 м.
Вид битрейта                             : Переменный
Битрейт                                  : 1630 Кбит/сек
Каналы                                   : 2 канала
Расположение каналов                     : Front: L R
Частота                                  : 48,0 КГц
Битовая глубина                          : 24 бит
Размер потока                            : 336 Мбайт (100%)
Библиотека кодирования                   : libFLAC 1.2.1 (UTC 2007-09-17)
Код: Выделить всё
foobar2000 1.1.3 / Dynamic Range Meter 1.1.1
log date: 2018-11-01 08:17:27

--------------------------------------------------------------------------------
Analyzed: Unknown Artists / Mozart - The Best Of...
--------------------------------------------------------------------------------

DR         Peak         RMS     Duration Track
--------------------------------------------------------------------------------
DR13      -0.38 dB   -16.94 dB      6:36 ?-01(a). From Symphony №40 in G minor K 550; Molto Allegro
DR13      -1.06 dB   -18.25 dB      3:45 ?-01(b). From Symphony №40 in G minor K 550; Menueto allegro
DR10      -0.10 dB   -15.21 dB      8:31 ?-02. From Symphony №29 in A major K 201; Allegro moderato
DR14      -2.55 dB   -20.42 dB      4:12 ?-03. Menuetto from The Divertismento in D major, K 334
DR14      -1.55 dB   -19.32 dB      3:29 ?-04. Sonata №11 in A major K 331 ''Rondo alla Turca''
DR14      -1.46 dB   -20.27 dB      3:04 ?-05. From Symphony 335 in D magor, K 385 ''Haffner''; Menuetto
DR13      -0.10 dB   -17.83 dB      6:30 ?-Serenade №13 in G major K525 ''Eine Kleine Nachtmusik''; Allegro
DR14      -1.35 dB   -20.86 dB      6:44 ?-Serenade №13 in G major K525 ''Eine Kleine Nachtmusik'', Romanza-Andante
DR13      -0.41 dB   -18.41 dB      2:21 ?-Serenade №13 in G major K525 ''Eine Kleine Nachtmusik'', Menuetto-Allegretto
DR14      -0.10 dB   -20.41 dB      3:27 ?-Serenade №13 in G major K525 ''Eine Kleine Nachtmusik'', Rondo-Allegro
DR12      -0.68 dB   -17.31 dB      4:18 ?-The Marriage of Figaro, K492, Overture
DR15      -0.10 dB   -18.62 dB      5:31 ?-From Piano Concerto 321 in C major K 467 ''Elvira Madigan''
--------------------------------------------------------------------------------

Number of tracks:  12
Official DR value: DR13

Samplerate:        48000 Hz
Channels:          2
Bits per sample:   24
Bitrate:           1630 kbps
Codec:             FLAC
================================================================================

Код: Выделить всё
REM GENRE "Classical"
REM DATE "unknown year"
REM COMMENT "Cassette, Compilation, Unofficial Release, Арт Классик студия, Russia"
PERFORMER "Unknown Artists"
TITLE "Mozart - The Best Of..."
FILE "01. Side A.flac" WAVE
  TRACK 01 AUDIO
    TITLE "01(a). From Symphony №40 in G minor K 550; Molto Allegro"
    INDEX 01 00:00:00
  TRACK 02 AUDIO
    TITLE "01(b). From Symphony №40 in G minor K 550; Menueto allegro"
    INDEX 01 06:36:36
  TRACK 03 AUDIO
    TITLE "02. From Symphony №29 in A major K 201; Allegro moderato"
    INDEX 01 10:21:24
  TRACK 04 AUDIO
    TITLE "03. Menuetto from The Divertismento in D major, K 334"
    INDEX 01 18:52:38
  TRACK 05 AUDIO
    TITLE "04. Sonata №11 in A major K 331 ''Rondo alla Turca''"
    INDEX 01 23:04:60
  TRACK 06 AUDIO
    TITLE "05. From Symphony 335 in D magor, K 385 ''Haffner''; Menuetto"
    INDEX 01 26:33:57
FILE "02. Side B.flac" WAVE
  TRACK 07 AUDIO
    TITLE "Serenade №13 in G major K525 ''Eine Kleine Nachtmusik''; Allegro"
    INDEX 01 00:00:00
  TRACK 08 AUDIO
    TITLE "Serenade №13 in G major K525 ''Eine Kleine Nachtmusik'', Romanza-Andante"
    INDEX 01 06:30:22
  TRACK 09 AUDIO
    TITLE "Serenade №13 in G major K525 ''Eine Kleine Nachtmusik'', Menuetto-Allegretto"
    INDEX 01 13:13:65
  TRACK 10 AUDIO
    TITLE "Serenade №13 in G major K525 ''Eine Kleine Nachtmusik'', Rondo-Allegro"
    INDEX 01 15:34:46
  TRACK 11 AUDIO
    TITLE "The Marriage of Figaro, K492, Overture"
    INDEX 01 19:02:02
  TRACK 12 AUDIO
    TITLE "From Piano Concerto 321 in C major K 467 ''Elvira Madigan''"
    INDEX 01 23:20:22

Время раздачи:
По выходным дням (до появления первых 3-5 скачавших)
Не забывайте говорить Спасибо. Не уходите с раздачи!   
Торрент: Зарегистрирован [02 ноя 2018, 03:19] Для скачивания .torrent
необходима регистрация
Или скачать с помощью
MediaGet
Статус:
Проверен
 
.torrent скачан: 7 раз
Хэш: d83dfd9d94e49714d3753916cab247cb1fee1133
Размер: 686.36 МБ (719 702 441 байт)
   Стать Автором раздачи
   
Цитата

Вернуться в Vinyl-Rip и Hand-Made

Кто сейчас на конференции

Сейчас эту тему просматривают: нет зарегистрированных пользователей и гости: 1