Saint-Saens - Symphonies (Carnival of the Animals, Phantasy E flat Major, Organ Symphony №3 C minor) (2000) [FLAC 2.0|48/24|image+.cue|MC-Rip] <Classical>

 Статистика раздачи 
Размер: 665.69 МБ   |  Зарегистрирован: 20 окт 2018, 07:22   |   .torrent скачан: 0 раз
Сидеров: 2  [ 0 байт/сек ]     Личеров: 1  [ 0 байт/сек ]  
  
Аватара пользователя
 
Раздал: 1.44 ТБ
Скачал: 26.32 ГБ
Ратио: 55.955
Сообщения: 175329
Стаж: 2 года 4 месяца 17 дней

Saint-Saens - Symphonies (2000)

Автор рипа: samopal records
Жанр: Classical
Продолжительность: 01:02:48
Издание: Tring International (Europe)
Номер по каталогу: MCSYM047
Кодек: FLAC2.0
Формат записи: 24/96
Формат раздачи: 24/48
Реальные значения DR: DR11
Источник: Cassette
Треклист:
Carnival of the Animals
01. Introduction et marche royale du lion (Introduction and Royal March of the Lion)
02. Poules et coqs (Hens and Roosters)
03. Hemiones (animaux veloces) (Wild Donkeys Swift Animals)
04. Tortues (Tortoises)
05. L'Elephant (The Elephant)
06. Kangourous
07. Aquarium
08 Personnages a longues oreilles (Characters with Long Ears)
09. Le Coucou au fond des bois (The Cuckoo in the Depths of the Woods)
10. Voliere (Aviary)
11. Pianistes (Pianists)
12. Fossiles (Fossils)
13. Le cygne (The Swan)
14. Final (Finale)
Hanspeter Gmur Conducting
The Suddeutsche Philharmonie
15. Phantasy E flat Major
Organist: Imrich Szabo
Носитель: MC
Код класса состояния MC: VG
Устройство воспроизведения: AKAI GX 95MK2
Фонокорректор: встроенный
АЦП: ESI Juli@
Программа-оцифровщик: Adobe Audition
Обработка: удаление артефактов

Код: Выделить всё
Общее
Полное имя                               : H:\01. Side 1.flac
Формат                                   : FLAC
Формат/Информация                        : Free Lossless Audio Codec
Размер файла                             : 299 Мбайт
Продолжительность                        : 28 м.
Режим общего битрейта                    : Переменный
Общий поток                              : 1449 Кбит/сек

Аудио
Формат                                   : FLAC
Формат/Информация                        : Free Lossless Audio Codec
Продолжительность                        : 28 м.
Вид битрейта                             : Переменный
Битрейт                                  : 1449 Кбит/сек
Каналы                                   : 2 канала
Расположение каналов                     : Front: L R
Частота                                  : 48,0 КГц
Битовая глубина                          : 24 бит
Размер потока                            : 299 Мбайт (100%)
Библиотека кодирования                   : libFLAC 1.2.1 (UTC 2007-09-17)

Общее
Полное имя                               : H:\02. Side 2.flac
Формат                                   : FLAC
Формат/Информация                        : Free Lossless Audio Codec
Размер файла                             : 361 Мбайт
Продолжительность                        : 33 м.
Режим общего битрейта                    : Переменный
Общий поток                              : 1486 Кбит/сек

Аудио
Формат                                   : FLAC
Формат/Информация                        : Free Lossless Audio Codec
Продолжительность                        : 33 м.
Вид битрейта                             : Переменный
Битрейт                                  : 1486 Кбит/сек
Каналы                                   : 2 канала
Расположение каналов                     : Front: L R
Частота                                  : 48,0 КГц
Битовая глубина                          : 24 бит
Размер потока                            : 361 Мбайт (100%)
Библиотека кодирования                   : libFLAC 1.2.1 (UTC 2007-09-17)
Код: Выделить всё
foobar2000 1.1.3 / Dynamic Range Meter 1.1.1
log date: 2018-10-16 16:03:33

--------------------------------------------------------------------------------
Analyzed: Hanspeter Gmur Conducting The Suddeutsche Philharmonie / Symphonies (1-14)
          Imrich Szabo / Symphonies (15)
          The Munchner Symphonic Orchestra Organist: Walter Neumann / Symphonies (16-18)
--------------------------------------------------------------------------------

DR         Peak         RMS     Duration Track
--------------------------------------------------------------------------------
DR10      -2.28 dB   -15.75 dB      1:55 ?-01. Introduction et marche royale du lion (Introduction and Royal March of the Lion)
DR10      -4.72 dB   -20.57 dB      1:11 ?-02. Poules et coqs (Hens and Roosters)
DR10      -4.74 dB   -17.20 dB      0:41 ?-03. Hemiones (animaux veloces) (Wild Donkeys Swift Animals)
DR10      -8.04 dB   -23.02 dB      2:08 ?-04. Tortues (Tortoises)
DR11      -2.76 dB   -16.82 dB      1:26 ?-05. L'Elephant (The Elephant)
DR12      -5.55 dB   -25.35 dB      1:02 ?-06. Kangourous
DR10      -4.93 dB   -18.45 dB      2:31 ?-07. Aquarium
DR9       -2.46 dB   -17.31 dB      0:49 ?-08 Personnages a longues oreilles (Characters with Long Ears)
DR12      -5.17 dB   -21.98 dB      2:38 ?-09. Le Coucou au fond des bois (The Cuckoo in the Depths of the Woods)
DR11      -0.44 dB   -16.36 dB      1:26 ?-10. Voliere (Aviary)
DR10      -0.60 dB   -13.01 dB      1:27 ?-11. Pianistes (Pianists)
DR10      -2.59 dB   -16.78 dB      1:23 ?-12. Fossiles (Fossils)
DR11      -4.52 dB   -20.28 dB      2:44 ?-13. Le cygne (The Swan)
DR9       -0.37 dB   -13.04 dB      1:53 ?-14. Final (Finale)
DR10      -0.10 dB   -14.69 dB      5:37 ?-15. Phantasy E flat Major
DR14      -1.73 dB   -21.48 dB     19:13 ?-16.  Adagio - Allegro moderato (Organ Symphony №3 C minor)
DR13      -1.29 dB   -18.51 dB      7:10 ?-17. Allegro moderato (Organ Symphony №3 C minor)
DR12      -0.77 dB   -16.38 dB      7:33 ?-18. Maestoso - Allegro moderato (Organ Symphony №3 C minor)
--------------------------------------------------------------------------------

Number of tracks:  18
Official DR value: DR11

Samplerate:        48000 Hz
Channels:          2
Bits per sample:   24
Bitrate:           1486 kbps
Codec:             FLAC
================================================================================

Код: Выделить всё
REM GENRE "Classical"
REM DATE "2000"
REM COMMENT "Cassette, Compilation, Tring MC SYMO47, Europe"
PERFORMER "Various Artists"
TITLE "Symphonies"
FILE "01. Side 1.flac" WAVE
  TRACK 01 AUDIO
    TITLE "01. Introduction et marche royale du lion (Introduction and Royal March of the Lion)"
    PERFORMER "Hanspeter Gmur Conducting The Suddeutsche Philharmonie"
    INDEX 01 00:00:00
  TRACK 02 AUDIO
    TITLE "02. Poules et coqs (Hens and Roosters)"
    PERFORMER "Hanspeter Gmur Conducting The Suddeutsche Philharmonie"
    INDEX 01 01:54:73
  TRACK 03 AUDIO
    TITLE "03. Hemiones (animaux veloces) (Wild Donkeys Swift Animals)"
    PERFORMER "Hanspeter Gmur Conducting The Suddeutsche Philharmonie"
    INDEX 01 03:05:71
  TRACK 04 AUDIO
    TITLE "04. Tortues (Tortoises)"
    PERFORMER "Hanspeter Gmur Conducting The Suddeutsche Philharmonie"
    INDEX 01 03:47:10
  TRACK 05 AUDIO
    TITLE "05. L'Elephant (The Elephant)"
    PERFORMER "Hanspeter Gmur Conducting The Suddeutsche Philharmonie"
    INDEX 01 05:55:33
  TRACK 06 AUDIO
    TITLE "06. Kangourous"
    PERFORMER "Hanspeter Gmur Conducting The Suddeutsche Philharmonie"
    INDEX 01 07:21:20
  TRACK 07 AUDIO
    TITLE "07. Aquarium"
    PERFORMER "Hanspeter Gmur Conducting The Suddeutsche Philharmonie"
    INDEX 01 08:23:57
  TRACK 08 AUDIO
    TITLE "08 Personnages a longues oreilles (Characters with Long Ears)"
    PERFORMER "Hanspeter Gmur Conducting The Suddeutsche Philharmonie"
    INDEX 01 10:54:67
  TRACK 09 AUDIO
    TITLE "09. Le Coucou au fond des bois (The Cuckoo in the Depths of the Woods)"
    PERFORMER "Hanspeter Gmur Conducting The Suddeutsche Philharmonie"
    INDEX 01 11:43:49
  TRACK 10 AUDIO
    TITLE "10. Voliere (Aviary)"
    PERFORMER "Hanspeter Gmur Conducting The Suddeutsche Philharmonie"
    INDEX 01 14:21:27
  TRACK 11 AUDIO
    TITLE "11. Pianistes (Pianists)"
    PERFORMER "Hanspeter Gmur Conducting The Suddeutsche Philharmonie"
    INDEX 01 15:47:30
  TRACK 12 AUDIO
    TITLE "12. Fossiles (Fossils)"
    PERFORMER "Hanspeter Gmur Conducting The Suddeutsche Philharmonie"
    INDEX 01 17:14:27
  TRACK 13 AUDIO
    TITLE "13. Le cygne (The Swan)"
    PERFORMER "Hanspeter Gmur Conducting The Suddeutsche Philharmonie"
    INDEX 01 18:37:10
  TRACK 14 AUDIO
    TITLE "14. Final (Finale)"
    PERFORMER "Hanspeter Gmur Conducting The Suddeutsche Philharmonie"
    INDEX 01 21:21:20
  TRACK 15 AUDIO
    TITLE "15. Phantasy E flat Major"
    PERFORMER "Imrich Szabo"
    INDEX 01 23:14:26
FILE "02. Side 2.flac" WAVE
  TRACK 16 AUDIO
    TITLE "16.  Adagio - Allegro moderato (Organ Symphony №3 C minor)"
    PERFORMER "The Munchner Symphonic Orchestra Organist: Walter Neumann"
    INDEX 01 00:00:00
  TRACK 17 AUDIO
    TITLE "17. Allegro moderato (Organ Symphony №3 C minor)"
    PERFORMER "The Munchner Symphonic Orchestra Organist: Walter Neumann"
    INDEX 01 19:13:34
  TRACK 18 AUDIO
    TITLE "18. Maestoso - Allegro moderato (Organ Symphony №3 C minor)"
    PERFORMER "The Munchner Symphonic Orchestra Organist: Walter Neumann"
    INDEX 01 26:23:35
Время раздачи:
По выходным дням (до появления первых 3-5 скачавших)
Не забывайте говорить Спасибо. Не уходите с раздачи!   
Торрент: Зарегистрирован [20 окт 2018, 07:22] Для скачивания .torrent
необходима регистрация
Или скачать с помощью
MediaGet
Статус:
Проверен
 
.torrent скачан: 0 раз
Хэш: 1fd2c86480b45946949490126db3a6dc3a1fac2d
Размер: 665.69 МБ (698 031 549 байт)
   Стать Автором раздачи
   
Цитата
  • Похожие торренты
    Ответы
    Просмотры
    Последнее сообщение

Вернуться в Vinyl-Rip и Hand-Made

Кто сейчас на конференции

Сейчас эту тему просматривают: нет зарегистрированных пользователей и гости: 1