The Music Of San Marco/Soloist Di Zagreb - Vivaldi - The Four Seasons/Concerto Grosso op. 3/8 in A minor (2000) [FLAC 2.0|48/24|image+.cue|MC-Rip] <Classical, Baroque>

 Статистика раздачи 
Размер: 679.7 МБ   |  Зарегистрирован: 21 окт 2018, 07:24   |   .torrent скачан: 0 раз
Сидеров: 0  [ 0 байт/сек ]     Личеров: 0  [ 0 байт/сек ]  
  
Аватара пользователя
 
Раздал: 1.4 ТБ
Скачал: 12.21 ГБ
Ратио: 117.188
Сообщения: 175119
Стаж: 2 года 4 месяца 10 дней

Vivaldi
The Music Of San Marco/Soloist Di Zagreb
The Four Seasons/Concerto Grosso op. 3/8 in A minor (2000)

Автор рипа: samopal records
Жанр: Classical, Baroque
Продолжительность: 00:56:28
Издание: Tring International (Europ)
Номер по каталогу: SYMO04
Кодек: FLAC2.0
Формат записи: 24/96
Формат раздачи: 24/48
Реальные значения DR: DR12
Источник: Cassette, Compilation
Треклист:
Spring Concerto in E major RV 269
01 Allegro
02 Largo
03 Allegro
Summer Concerto in G minor RV 315
04 Allegro
05 Adagio
06 Presto
Autumn Concerto in F major RV 297
07 Allegro
08 Adagio
09 Allegro
Winter Concerto in F minor RV 297
10 Allegro Non Molto
11 Largo
12 Allegro

Alberto Lizzio Conducting
The Music Of San Marco

Concerto Grosso op. 3/8 in A minor
13 Allegro
14 Larghetto
15 Allegro

Soloist Di Zagreb
Носитель: MC
Код класса состояния MC: VG
Устройство воспроизведения: AKAI GX 95MK2
Фонокорректор: встроенный
АЦП: ESI Juli@
Программа-оцифровщик: Adobe Audition
Обработка: удаление артефактов

Код: Выделить всё
Общее
Полное имя                               : H:\02. Side B.flac
Формат                                   : FLAC
Формат/Информация                        : Free Lossless Audio Codec
Размер файла                             : 267 Мбайт
Продолжительность                        : 22 м.
Режим общего битрейта                    : Переменный
Общий поток                              : 1667 Кбит/сек

Аудио
Формат                                   : FLAC
Формат/Информация                        : Free Lossless Audio Codec
Продолжительность                        : 22 м.
Вид битрейта                             : Переменный
Битрейт                                  : 1667 Кбит/сек
Каналы                                   : 2 канала
Расположение каналов                     : Front: L R
Частота                                  : 48,0 КГц
Битовая глубина                          : 24 бит
Размер потока                            : 267 Мбайт (100%)
Библиотека кодирования                   : libFLAC 1.2.1 (UTC 2007-09-17)

Общее
Полное имя                               : H:\01. Side A.flac
Формат                                   : FLAC
Формат/Информация                        : Free Lossless Audio Codec
Размер файла                             : 407 Мбайт
Продолжительность                        : 34 м.
Режим общего битрейта                    : Переменный
Общий поток                              : 1668 Кбит/сек

Аудио
Формат                                   : FLAC
Формат/Информация                        : Free Lossless Audio Codec
Продолжительность                        : 34 м.
Вид битрейта                             : Переменный
Битрейт                                  : 1668 Кбит/сек
Каналы                                   : 2 канала
Расположение каналов                     : Front: L R
Частота                                  : 48,0 КГц
Битовая глубина                          : 24 бит
Размер потока                            : 407 Мбайт (100%)
Библиотека кодирования                   : libFLAC 1.2.1 (UTC 2007-09-17)
Код: Выделить всё
foobar2000 1.1.3 / Dynamic Range Meter 1.1.1
log date: 2018-10-21 08:22:43

--------------------------------------------------------------------------------
Analyzed: Soloist Di Zagreb / The Four Seasons/Concerto Grosso op. 3/8 in A minor
--------------------------------------------------------------------------------

DR         Peak         RMS     Duration Track
--------------------------------------------------------------------------------
DR12      -0.32 dB   -15.76 dB      4:03 ?-13 Concerto Grosso op. 3/8 in A minor - Allegro
DR13      -5.28 dB   -21.87 dB      4:22 ?-14 Concerto Grosso op. 3/8 in A minor - Larghetto
DR12      -0.25 dB   -16.37 dB      3:48 ?-15 Concerto Grosso op. 3/8 in A minor - Allegro
--------------------------------------------------------------------------------

Number of tracks:  3
Official DR value: DR12

Samplerate:        48000 Hz
Channels:          2
Bits per sample:   24
Bitrate:           1667 kbps
Codec:             FLAC
================================================================================

--------------------------------------------------------------------------------
Analyzed: The Music Of San Marco / The Four Seasons/Concerto Grosso op. 3/8 in A minor
--------------------------------------------------------------------------------

DR         Peak         RMS     Duration Track
--------------------------------------------------------------------------------
DR11      -0.10 dB   -16.26 dB      3:37 ?-01 Spring Concerto in E major RV 269 - Allegro
DR11      -9.07 dB   -23.74 dB      2:56 ?-02 Spring Concerto in E major RV 269 - Largo
DR11      -1.22 dB   -16.84 dB      4:35 ?-03 Spring Concerto in E major RV 269 - Allegro
DR13      -0.10 dB   -18.69 dB      6:00 ?-04 Summer Concerto in G minor RV 315 - Allegro
DR13      -1.80 dB   -22.29 dB      2:27 ?-05 Summer Concerto in G minor RV 315Adagio
DR11      -0.74 dB   -14.61 dB      3:09 ?-06 Summer Concerto in G minor RV 315 - Presto
DR12      -1.35 dB   -17.77 dB      3:37 ?-07 Autumn Concerto in F major RV 297 - Allegro
DR15      -2.45 dB   -24.52 dB      4:14 ?-08 Autumn Concerto in F major RV 297 - Adagio
DR13      -0.63 dB   -16.99 dB      3:32 ?-09 Autumn Concerto in F major RV 297 - Allegro
DR13      -1.71 dB   -19.05 dB      3:47 ?-10 Winter Concerto in F minor RV 297 - Allegro Non Molto
DR11      -6.81 dB   -23.23 dB      2:23 ?-11 Winter Concerto in F minor RV 297 - Largo
DR12      -0.01 dB   -17.59 dB      3:59 ?-12 Winter Concerto in F minor RV 297 - Allegro
--------------------------------------------------------------------------------

Number of tracks:  12
Official DR value: DR12

Samplerate:        48000 Hz
Channels:          2
Bits per sample:   24
Bitrate:           1667 kbps
Codec:             FLAC
================================================================================

Код: Выделить всё
REM GENRE "Classical, Baroque"
REM DATE "2000"
REM COMMENT "Cassette, Compilation, Tring International, SYMO04, Europ"
PERFORMER "Music Di San Marco/Soloist Di Zagreb"
TITLE "The Four Seasons/Concerto Grosso op. 3/8 in A minor"
FILE "01. Side A.flac" WAVE
  TRACK 01 AUDIO
    TITLE "01 Spring Concerto in E major RV 269 - Allegro"
    PERFORMER "The Music Of San Marco"
    INDEX 01 00:00:00
  TRACK 02 AUDIO
    TITLE "02 Spring Concerto in E major RV 269 - Largo"
    PERFORMER "The Music Of San Marco"
    INDEX 01 03:36:54
  TRACK 03 AUDIO
    TITLE "03 Spring Concerto in E major RV 269 - Allegro"
    PERFORMER "The Music Of San Marco"
    INDEX 01 06:32:30
  TRACK 04 AUDIO
    TITLE "04 Summer Concerto in G minor RV 315 - Allegro"
    PERFORMER "The Music Of San Marco"
    INDEX 01 11:07:35
  TRACK 05 AUDIO
    TITLE "05 Summer Concerto in G minor RV 315Adagio"
    PERFORMER "The Music Of San Marco"
    INDEX 01 17:07:36
  TRACK 06 AUDIO
    TITLE "06 Summer Concerto in G minor RV 315 - Presto"
    PERFORMER "The Music Of San Marco"
    INDEX 01 19:34:16
  TRACK 07 AUDIO
    TITLE "07 Autumn Concerto in F major RV 297 - Allegro"
    PERFORMER "The Music Of San Marco"
    INDEX 01 22:42:61
  TRACK 08 AUDIO
    TITLE "08 Autumn Concerto in F major RV 297 - Adagio"
    PERFORMER "The Music Of San Marco"
    INDEX 01 26:19:57
  TRACK 09 AUDIO
    TITLE "09 Autumn Concerto in F major RV 297 - Allegro"
    PERFORMER "The Music Of San Marco"
    INDEX 01 30:33:66
FILE "02. Side B.flac" WAVE
  TRACK 10 AUDIO
    TITLE "10 Winter Concerto in F minor RV 297 - Allegro Non Molto"
    PERFORMER "The Music Of San Marco"
    INDEX 01 00:00:00
  TRACK 11 AUDIO
    TITLE "11 Winter Concerto in F minor RV 297 - Largo"
    PERFORMER "The Music Of San Marco"
    INDEX 01 03:47:14
  TRACK 12 AUDIO
    TITLE "12 Winter Concerto in F minor RV 297 - Allegro"
    PERFORMER "The Music Of San Marco"
    INDEX 01 06:09:73
  TRACK 13 AUDIO
    TITLE "13 Concerto Grosso op. 3/8 in A minor - Allegro"
    PERFORMER "Soloist Di Zagreb"
    INDEX 01 10:09:01
  TRACK 14 AUDIO
    TITLE "14 Concerto Grosso op. 3/8 in A minor - Larghetto"
    PERFORMER "Soloist Di Zagreb"
    INDEX 01 14:11:43
  TRACK 15 AUDIO
    TITLE "15 Concerto Grosso op. 3/8 in A minor - Allegro"
    PERFORMER "Soloist Di Zagreb"
    INDEX 01 18:33:71

"Есть мнение", что эта запись принадлежит неизвестному оркестру и неизвестному дирижеру, датированная примерно 1970-ми годами. Оркестры и дирижеры на этих различных релизах одной и той же записи либо поддельные (например. несуществующий "Musici Di San Marco", или ложно приписывается реальным оркестрам, которые никогда не записывали это (например. "Solisti di Zagreb", оригинальное название Zagrebacki Solisti) - все лейблы, поставившие одну и ту же запись из каталога, проданного мошенником Альфредом Шольцем. Лейблы ложно утверждают, что запись является "цифровой" (DDD), но записи, проданные Альфредом Шольцем и используемые этими бюджетными лейблами, были сделаны до того, как технология цифровой записи была доступна, поэтому они должны быть правильно классифицированы как "аналоговые".

Время раздачи:
По выходным дням (до появления первых 3-5 скачавших)
Не забывайте говорить Спасибо. Не уходите с раздачи!   
Торрент: Зарегистрирован [21 окт 2018, 07:24] Для скачивания .torrent
необходима регистрация
Или скачать с помощью
MediaGet
Статус:
Проверен
 
.torrent скачан: 0 раз
Размер: 679.7 МБ (712 719 355 байт)
   Стать Автором раздачи
   
Цитата

Вернуться в Vinyl-Rip и Hand-Made

Кто сейчас на конференции

Сейчас эту тему просматривают: нет зарегистрированных пользователей и гости: 1