Гости Из Будущего - Ева. Полная Версия (2000) [FLAC 2.0|48/24|image+.cue|MC-Rip] <Europop, Euro House>

 Статистика раздачи 
Размер: 975.56 МБ   |  Зарегистрирован: 20 окт 2018, 08:23   |   .torrent скачан: 0 раз
Сидеров: 0  [ 0 байт/сек ]     Личеров: 0  [ 0 байт/сек ]  
  
Аватара пользователя
 
Раздал: 1.4 ТБ
Скачал: 12.21 ГБ
Ратио: 117.188
Сообщения: 175119
Стаж: 2 года 4 месяца 10 дней

Гости Из Будущего - Ева. Полная Версия (2000)

Автор рипа: samopal records
Жанр: Europop, Euro House
Продолжительность: 01:14:43
Издание: Русский Стандарт (Russia)
Номер по каталогу: none
Кодек: FLAC2.0
Формат записи: 24/96
Формат раздачи: 24/48
Реальные значения DR: DR11
Источник: Cassette, Album
Треклист:
A1 Intro
A2 Люби Меня По-Французски
A3 Он Чужой
A4 Не Говори О Любви
A5 Твои Глаза Как Вечер
A6 Он Улетел
A7 Переключая Каналы
A8 Жар-Птица
A9 Метко
A10 Ромео и Джульетта
B1 Только Ты
B2 В СПб Где-То
B3 Ты Где-то
B4 Не Любовь
B5 Зима В Сердце
B6 Беги От Меня
B7 Я С Тобой
В8 Это Сильнее Меня
В9 Outro
Носитель: MC
Код класса состояния MC: VG
Устройство воспроизведения: AKAI GX 95MK2
Фонокорректор: встроенный
АЦП: ESI Juli@
Программа-оцифровщик: Adobe Audition
Обработка: удаление артефактов

Код: Выделить всё
Общее
Полное имя                               : H:\02. Сторона B.flac
Формат                                   : FLAC
Формат/Информация                        : Free Lossless Audio Codec
Размер файла                             : 476 Мбайт
Продолжительность                        : 37 м.
Режим общего битрейта                    : Переменный
Общий поток                              : 1791 Кбит/сек

Аудио
Формат                                   : FLAC
Формат/Информация                        : Free Lossless Audio Codec
Продолжительность                        : 37 м.
Вид битрейта                             : Переменный
Битрейт                                  : 1791 Кбит/сек
Каналы                                   : 2 канала
Расположение каналов                     : Front: L R
Частота                                  : 48,0 КГц
Битовая глубина                          : 24 бит
Размер потока                            : 476 Мбайт (100%)
Библиотека кодирования                   : libFLAC 1.2.1 (UTC 2007-09-17)

Общее
Полное имя                               : H:\01. Сторона A.flac
Формат                                   : FLAC
Формат/Информация                        : Free Lossless Audio Codec
Размер файла                             : 494 Мбайт
Продолжительность                        : 37 м.
Режим общего битрейта                    : Переменный
Общий поток                              : 1840 Кбит/сек

Аудио
Формат                                   : FLAC
Формат/Информация                        : Free Lossless Audio Codec
Продолжительность                        : 37 м.
Вид битрейта                             : Переменный
Битрейт                                  : 1840 Кбит/сек
Каналы                                   : 2 канала
Расположение каналов                     : Front: L R
Частота                                  : 48,0 КГц
Битовая глубина                          : 24 бит
Размер потока                            : 494 Мбайт (100%)
Библиотека кодирования                   : libFLAC 1.2.1 (UTC 2007-09-17)
Код: Выделить всё
foobar2000 1.1.3 / Dynamic Range Meter 1.1.1
log date: 2018-10-02 10:53:29

--------------------------------------------------------------------------------
Analyzed: Гости Из Будущего / Ева (Полная Версия)
--------------------------------------------------------------------------------

DR         Peak         RMS     Duration Track
--------------------------------------------------------------------------------
DR12      -1.17 dB   -16.07 dB      1:02 ?-A1 Intro
DR11      -0.35 dB   -12.96 dB      4:02 ?-A2 Люби Меня По-Французски
DR11      -0.10 dB   -13.11 dB      3:32 ?-A3 Он Чужой
DR12      -0.10 dB   -14.41 dB      4:08 ?-A4 Не Говори О Любви
DR10      -0.25 dB   -14.27 dB      4:11 ?-A5 Твои Глаза Как Вечер
DR12      -0.48 dB   -13.84 dB      3:47 ?-A6 Он Улетел
DR10      -0.13 dB   -12.45 dB      4:55 ?-A7 Переключая Каналы
DR11      -0.69 dB   -14.08 dB      4:17 ?-A8 Жар-Птица
DR11      -1.19 dB   -14.13 dB      4:23 ?-A9 Метко
DR11      -0.47 dB   -13.15 dB      3:14 ?-03. Гости Из Будущего – (Ева) Полная Версия (2002)
DR11      -1.51 dB   -15.40 dB      7:14 ?-B1 Только Ты
DR10      -0.72 dB   -13.23 dB      3:14 ?-B2 В СПб Где-То
DR10      -0.10 dB   -11.19 dB      3:36 ?-B3 Ты Где-то
DR11      -0.33 dB   -12.80 dB      4:11 ?-B4 Не Любовь
DR11      -0.68 dB   -13.55 dB      3:55 ?-B5 Зима В Сердце
DR11      -0.74 dB   -13.44 dB      5:01 ?-B6 Беги От Меня
DR11      -0.38 dB   -12.85 dB      4:32 ?-B7 Я С Тобой
DR10      -0.74 dB   -13.31 dB      4:31 ?-В8 Это Сильнее Меня
DR12      -1.28 dB   -16.21 dB      0:58 ?-В9 Outro
--------------------------------------------------------------------------------

Number of tracks:  19
Official DR value: DR11

Samplerate:        48000 Hz
Channels:          2
Bits per sample:   24
Bitrate:           1791 kbps
Codec:             FLAC
================================================================================

Код: Выделить всё
REM GENRE "Europop, Euro House"
REM DATE "2002"
REM COMMENT "Cassette, Album, Русский Стандарт - none, Russia"
PERFORMER "Гости Из Будущего"
TITLE "Ева (Полная Версия)"
FILE "01. Сторона A.flac" WAVE
  TRACK 01 AUDIO
    TITLE "A1 Intro"
    INDEX 01 00:00:00
  TRACK 02 AUDIO
    TITLE "A2 Люби Меня По-Французски"
    INDEX 01 01:02:11
  TRACK 03 AUDIO
    TITLE "A3 Он Чужой"
    INDEX 01 05:04:45
  TRACK 04 AUDIO
    TITLE "A4 Не Говори О Любви"
    INDEX 01 08:36:65
  TRACK 05 AUDIO
    TITLE "A5 Твои Глаза Как Вечер"
    INDEX 01 12:44:32
  TRACK 06 AUDIO
    TITLE "A6 Он Улетел"
    INDEX 01 16:55:27
  TRACK 07 AUDIO
    TITLE "A7 Переключая Каналы"
    INDEX 01 20:42:24
  TRACK 08 AUDIO
    TITLE "A8 Жар-Птица"
    INDEX 01 25:37:40
  TRACK 09 AUDIO
    TITLE "A9 Метко"
    INDEX 01 29:54:55
  TRACK 10 AUDIO
    INDEX 01 34:17:56
FILE "02. Сторона B.flac" WAVE
  TRACK 11 AUDIO
    TITLE "B1 Только Ты"
    INDEX 01 00:00:00
  TRACK 12 AUDIO
    TITLE "B2 В СПб Где-То"
    INDEX 01 07:13:63
  TRACK 13 AUDIO
    TITLE "B3 Ты Где-то"
    INDEX 01 10:27:60
  TRACK 14 AUDIO
    TITLE "B4 Не Любовь"
    INDEX 01 14:04:08
  TRACK 15 AUDIO
    TITLE "B5 Зима В Сердце"
    INDEX 01 18:14:53
  TRACK 16 AUDIO
    TITLE "B6 Беги От Меня"
    INDEX 01 22:09:69
  TRACK 17 AUDIO
    TITLE "B7 Я С Тобой"
    INDEX 01 27:10:49
  TRACK 18 AUDIO
    TITLE "В8 Это Сильнее Меня"
    INDEX 01 31:42:69
  TRACK 19 AUDIO
    TITLE "В9 Outro"
    INDEX 01 36:13:43

Время раздачи:
По выходным дням (до появления первых 3-5 скачавших)
Не забывайте говорить Спасибо. Не уходите с раздачи!   
Торрент: Зарегистрирован [20 окт 2018, 08:23] Для скачивания .torrent
необходима регистрация
Или скачать с помощью
MediaGet
Статус:
Проверен
 
.torrent скачан: 0 раз
Размер: 975.56 МБ (1 022 949 007 байт)
   Стать Автором раздачи
   
Цитата
  • Похожие торренты
    Ответы
    Просмотры
    Последнее сообщение

Вернуться в Vinyl-Rip и Hand-Made

Кто сейчас на конференции

Сейчас эту тему просматривают: нет зарегистрированных пользователей и гости: 1