Three Dog Night - Coming Down Your Way (1975) [FLAC 2.0|96/24|image+.cue|Vinyl-Rip] <Pop Rock>

 Статистика раздачи 
Размер: 820.1 МБ   |  Зарегистрирован: 20 окт 2018, 07:55   |   .torrent скачан: 12 раз
Сидеров: 3  [ 0 байт/сек ]     Личеров: 2  [ 0 байт/сек ]  
  
Аватара пользователя
 
Раздал: 1.44 ТБ
Скачал: 26.32 ГБ
Ратио: 55.955
Сообщения: 175329
Стаж: 2 года 4 месяца 17 дней

Three Dog Night - Coming Down Your Way (1975)

Автор рипа: samopal records
Жанр: Pop Rock
Продолжительность: 00:36:42
Издатель (лейбл): ABC Records
Страна: US
Номера по каталогу: ABCD 888
Кодек: FLAC (image + .cue)
Формат записи: 24/192
Формат раздачи: 24/96
Реальные значения DR: DR12
Источник: Vinyl, LP, Album
Треклист:
A1 Til the World Ends
A2 You Can Leave Your Hat On
A3 Good Old Feeling
A4 Mind over Matter
A5 Midnight Flyer
B1 Kite Man
B2 Coming Down Your Way
B3 When It's Over
B4 Lean Back, Hold Steady
B5 Yo Te Quiero Hablar (Take You Down)
Устройство воспроизведения: Электроника ЭП 017С
Головка звукоснимателя: ГЗМ – 028 (Корвет)
Фонокоректор: AMX - 100 (LTO®)
АЦП: ESI Juli@
Программа-оцифровщик: Adobe Audition
Код класса состояния винила: VG
Обработка: удаление артефактов

Код: Выделить всё
Общее
Полное имя                               : C:\Documents and Settings\Admin\Мои документы\02. Side B.flac
Формат                                   : FLAC
Формат/Информация                        : Free Lossless Audio Codec
Размер файла                             : 369 Мбайт
Продолжительность                        : 17 м.
Режим общего битрейта                    : Переменный
Общий поток                              : 2896 Кбит/сек
Дата записи                              : 2018-10-02T13:45:39+06:00

Аудио
Формат                                   : FLAC
Формат/Информация                        : Free Lossless Audio Codec
Продолжительность                        : 17 м.
Вид битрейта                             : Переменный
Битрейт                                  : 2896 Кбит/сек
Каналы                                   : 2 канала
Расположение каналов                     : Front: L R
Частота                                  : 96,0 КГц
Битовая глубина                          : 24 бит
Размер потока                            : 369 Мбайт (100%)
Библиотека кодирования                   : libFLAC 1.2.1 (UTC 2007-09-17)

Общее
Полное имя                               : C:\Documents and Settings\Admin\Мои документы\01. Side A.flac
Формат                                   : FLAC
Формат/Информация                        : Free Lossless Audio Codec
Размер файла                             : 394 Мбайт
Продолжительность                        : 18 м.
Режим общего битрейта                    : Переменный
Общий поток                              : 2919 Кбит/сек
Дата записи                              : 2018-10-02T13:45:39+06:00

Аудио
Формат                                   : FLAC
Формат/Информация                        : Free Lossless Audio Codec
Продолжительность                        : 18 м.
Вид битрейта                             : Переменный
Битрейт                                  : 2919 Кбит/сек
Каналы                                   : 2 канала
Расположение каналов                     : Front: L R
Частота                                  : 96,0 КГц
Битовая глубина                          : 24 бит
Размер потока                            : 394 Мбайт (100%)
Библиотека кодирования                   : libFLAC 1.2.1 (UTC 2007-09-17)
Код: Выделить всё
foobar2000 1.1.3 / Dynamic Range Meter 1.1.1
log date: 2018-10-05 12:14:39

--------------------------------------------------------------------------------
Analyzed: Three Dog Night / Coming Down Your Way
--------------------------------------------------------------------------------

DR         Peak         RMS     Duration Track
--------------------------------------------------------------------------------
DR11      -1.29 dB   -16.97 dB      3:40 ?-A1 Til the World Ends
DR12      -0.46 dB   -15.89 dB      4:16 ?-A2 You Can Leave Your Hat On
DR12      -1.26 dB   -15.10 dB      3:12 ?-A3 Good Old Feeling
DR11      -0.69 dB   -15.06 dB      2:59 ?-A4 Mind over Matter
DR11      -1.32 dB   -14.67 dB      4:45 ?-A5 Midnight Flyer
DR12      -0.48 dB   -15.81 dB      3:46 ?-B1 Kite Man
DR11      -0.96 dB   -14.17 dB      3:13 ?-B2 Coming Down Your Way
DR11      -1.55 dB   -16.30 dB      3:41 ?-B3 When It's Over
DR13      -0.19 dB   -16.19 dB      3:50 ?-B4 Lean Back, Hold Steady
DR11      -2.08 dB   -15.56 dB      3:20 ?-B5 Yo Te Quiero Hablar (Take You Down)
--------------------------------------------------------------------------------

Number of tracks:  10
Official DR value: DR12

Samplerate:        96000 Hz
Channels:          2
Bits per sample:   24
Bitrate:           2896 kbps
Codec:             FLAC
================================================================================


Код: Выделить всё
REM GENRE "Pop Rock"
REM DATE "1975"
REM COMMENT "LP, Album, ABC Records, ABCD 888, USA"
PERFORMER "Three Dog Night"
TITLE "Coming Down Your Way"
FILE "01. Side A.flac" WAVE
  TRACK 01 AUDIO
    TITLE "A1 Til the World Ends"
    INDEX 01 00:00:00
  TRACK 02 AUDIO
    TITLE "A2 You Can Leave Your Hat On"
    INDEX 01 03:40:37
  TRACK 03 AUDIO
    TITLE "A3 Good Old Feeling"
    INDEX 01 07:56:15
  TRACK 04 AUDIO
    TITLE "A4 Mind over Matter"
    INDEX 01 11:08:48
  TRACK 05 AUDIO
    TITLE "A5 Midnight Flyer"
    INDEX 01 14:07:44
FILE "02. Side B.flac" WAVE
  TRACK 06 AUDIO
    TITLE "B1 Kite Man"
    INDEX 01 00:00:00
  TRACK 07 AUDIO
    TITLE "B2 Coming Down Your Way"
    INDEX 01 03:45:73
  TRACK 08 AUDIO
    TITLE "B3 When It's Over"
    INDEX 01 06:58:48
  TRACK 09 AUDIO
    TITLE "B4 Lean Back, Hold Steady"
    INDEX 01 10:39:36
  TRACK 10 AUDIO
    TITLE "B5 Yo Te Quiero Hablar (Take You Down)"
    INDEX 01 14:29:05

Время раздачи:
По выходным дням (до появления первых 3-5 скачавших)
Этот же материал без обработки в 24/192 желающие могут скачать отсюда:
[24/192] Three Dog Night - Coming Down Your Way (1975)
Не забывайте говорить Спасибо. Не уходите с раздачи!   
Торрент: Зарегистрирован [20 окт 2018, 07:55] Для скачивания .torrent
необходима регистрация
Или скачать с помощью
MediaGet
Статус:
Проверен
 
.torrent скачан: 12 раз
Хэш: 7012e518bde96ecccb29451ffe786590f4c9b6f6
Размер: 820.1 МБ (859 940 796 байт)
   Стать Автором раздачи
   
Цитата
  • Похожие торренты
    Ответы
    Просмотры
    Последнее сообщение

Вернуться в Vinyl-Rip и Hand-Made

Кто сейчас на конференции

Сейчас эту тему просматривают: нет зарегистрированных пользователей и гости: 1