Placido Domingo - Placido Domingo And Friends (2000) [FLAC 2.0|48/24|image+.cue|MC-Rip] <Classical, Vocal>

 Статистика раздачи 
Размер: 570.48 МБ   |  Зарегистрирован: 20 окт 2018, 06:49   |   .torrent скачан: 0 раз
Сидеров: 0  [ 0 байт/сек ]     Личеров: 1  [ 0 байт/сек ]  
  
Аватара пользователя
 
Раздал: 1.4 ТБ
Скачал: 12.21 ГБ
Ратио: 117.188
Сообщения: 175119
Стаж: 2 года 4 месяца 10 дней

Placido Domingo - Placido Domingo And Friends (2000)

Автор рипа: samopal records
Жанр: Classical, Vocal
Продолжительность: 00:46:46
Издание: Tring International (Europe)
Номер по каталогу: MCSYM074
Кодек: FLAC2.0
Формат записи: 24/96
Формат раздачи: 24/48
Реальные значения DR: DR12
Источник: Cassette
Треклист:
A1 Umberto Giordano - Fedora (Amor Ti Vieta), Placido Domingo
A2 Verdi - Luisa Miller (Quandro Le Serre), Placido Domingo
A3 Mozart - La clemenza di Tito (Parto Parto), Martha Senn
A4 Puccini - Intermezzo: (Manon Lescaut, Ch'ella Mi Creda), Placido Domingo
B1 Pablo Luna - Ch'ella Mi Vengo (El nino judio), Martha Senn
B2 Geronimo Gimenez - La boda de Luis Alonso (Intermezzo), Orchestra
B3 Puccini - La Boheme (Tiu Piu Non Torni), Eduard Tumagian & Placido Domingo
B4 Manuel Penella Moreno - El gato montes (Love Duet), Martha Senn & Placido Domingo
B5 Neapolitan song - Core Ingrato, Placido Domingo
Track 05 - в полиграфии ошибка - на самом деле трек называется De Espana vengo
Носитель: MC
Код класса состояния MC: VG
Устройство воспроизведения: AKAI GX 95MK2
Фонокорректор: встроенный
АЦП: ESI Juli@
Программа-оцифровщик: Adobe Audition
Обработка: удаление артефактов

Код: Выделить всё
Общее
Полное имя                               : H:\02. Side B.flac
Формат                                   : FLAC
Формат/Информация                        : Free Lossless Audio Codec
Размер файла                             : 284 Мбайт
Продолжительность                        : 23 м.
Режим общего битрейта                    : Переменный
Общий поток                              : 1683 Кбит/сек

Аудио
Формат                                   : FLAC
Формат/Информация                        : Free Lossless Audio Codec
Продолжительность                        : 23 м.
Вид битрейта                             : Переменный
Битрейт                                  : 1683 Кбит/сек
Каналы                                   : 2 канала
Расположение каналов                     : Front: L R
Частота                                  : 48,0 КГц
Битовая глубина                          : 24 бит
Размер потока                            : 284 Мбайт (100%)
Библиотека кодирования                   : libFLAC 1.2.1 (UTC 2007-09-17)

Общее
Полное имя                               : H:\01. Side A.flac
Формат                                   : FLAC
Формат/Информация                        : Free Lossless Audio Codec
Размер файла                             : 281 Мбайт
Продолжительность                        : 23 м.
Режим общего битрейта                    : Переменный
Общий поток                              : 1699 Кбит/сек

Аудио
Формат                                   : FLAC
Формат/Информация                        : Free Lossless Audio Codec
Продолжительность                        : 23 м.
Вид битрейта                             : Переменный
Битрейт                                  : 1699 Кбит/сек
Каналы                                   : 2 канала
Расположение каналов                     : Front: L R
Частота                                  : 48,0 КГц
Битовая глубина                          : 24 бит
Размер потока                            : 281 Мбайт (100%)
Библиотека кодирования                   : libFLAC 1.2.1 (UTC 2007-09-17)
Код: Выделить всё
foobar2000 1.1.3 / Dynamic Range Meter 1.1.1
log date: 2018-10-15 13:58:00

--------------------------------------------------------------------------------
Analyzed: P. Domingo / Placido Domingo And Friends
--------------------------------------------------------------------------------

DR         Peak         RMS     Duration Track
--------------------------------------------------------------------------------
DR13      -0.10 dB   -16.27 dB     23:09 ?-01. Side A
DR12      -0.10 dB   -15.74 dB     23:37 ?-02. Side B
--------------------------------------------------------------------------------

Number of tracks:  2
Official DR value: DR12

Samplerate:        48000 Hz
Channels:          2
Bits per sample:   24
Bitrate:           1683 kbps
Codec:             FLAC
================================================================================

Код: Выделить всё
REM GENRE "Vocal, Classical"
REM DATE "2000"
REM COMMENT "Cassette, Live Album, BASF – MCSYM074, Europe"
PERFORMER "Placido Domingo"
TITLE "Placido Domingo And Friends"
FILE "01. Side A.flac" WAVE
  TRACK 01 AUDIO
    TITLE "A1 Fedora (Amor Ti Vieta)"
    PERFORMER "Placido Domingo"
    INDEX 01 00:00:00
  TRACK 02 AUDIO
    TITLE "A2 Quandro Le Serre"
    PERFORMER "Placido Domingo"
    INDEX 01 02:20:65
  TRACK 03 AUDIO
    TITLE "A3 La clemenza di Tito (Parto Parto)"
    PERFORMER "Martha Senn"
    INDEX 01 07:39:35
  TRACK 04 AUDIO
    TITLE "A4 Intermezzo: (Manon Lescaut, Ch'ella Mi Creda)"
    PERFORMER "Placido Domingo"
    INDEX 01 14:52:02
FILE "02. Side B.flac" WAVE
  TRACK 05 AUDIO
    TITLE "B1 Ch'ella Mi Vengo (El nino judio)"
    PERFORMER "Martha Senn"
    INDEX 01 00:00:00
  TRACK 06 AUDIO
    TITLE "B2 La Boda De Louis Alonso"
    PERFORMER "Orchestra"
    INDEX 01 05:46:74
  TRACK 07 AUDIO
    TITLE "B3 La Boheme (Tiu Piu Non Torni)"
    PERFORMER "Eduard Tumagian & Placido Domingo"
    INDEX 01 11:15:26
  TRACK 08 AUDIO
    TITLE "B4 Ei Gato Montes (Love Duet)"
    PERFORMER "Martha Senn & Placido Domingo"
    INDEX 01 16:29:16
  TRACK 09 AUDIO
    TITLE "B5 Core Ingrato"
    PERFORMER "Placido Domingo"
    INDEX 01 20:09:66
Время раздачи:
По выходным дням (до появления первых 3-5 скачавших)
Не забывайте говорить Спасибо. Не уходите с раздачи!   
Торрент: Зарегистрирован [20 окт 2018, 06:49] Для скачивания .torrent
необходима регистрация
Или скачать с помощью
MediaGet
Статус:
Проверен
 
.torrent скачан: 0 раз
Размер: 570.48 МБ (598 189 608 байт)
   Стать Автором раздачи
   
Цитата

Вернуться в Vinyl-Rip и Hand-Made

Кто сейчас на конференции

Сейчас эту тему просматривают: нет зарегистрированных пользователей и гости: 1