Modern Talking - The 1-st Album (1985) [FLAC 2.0 24/96|Lossless|tracks|Vinyl-Rip] <Electronic, Synth-pop>

 Статистика раздачи 
Размер: 840.63 МБ   |  Зарегистрирован: 15 окт 2018, 19:33   |   .torrent скачан: 0 раз
Сидеров: 0  [ 0 байт/сек ]     Личеров: 0  [ 0 байт/сек ]  
  
Аватара пользователя
 
Раздал: 1.4 ТБ
Скачал: 12.21 ГБ
Ратио: 117.188
Сообщения: 175119
Стаж: 2 года 4 месяца 10 дней

Modern Talking - The 1-st Album (1985)

Жанр: Electronic, Synth-pop
Издание: Hansa - 206818-620
Продолжительность: 00:39:38
Автор оцифровки: alexpika

Кодек: FLAC 2.0 24/96
Битрейт: Lossless
Тип рипа: tracks

Треклист:
A1. You're My Heart, You're My Soul (5.36)
A2. You Can Win If You Want (3.55)
A3. There's Too Much Blue In Missing You (5.30)
A4. Diamonds Never Made A Lady (4.40)

B1. The Night Is Yours - The Night Is Mine (4.22)
B2. Do You Wanna - Lyrics By – Mary Applegate (4.05)
B3. Lucky Guy (3.31)
B4. One In A Million (3.44)
B5. Bells Of Paris (4.17)
Код класса состояния винила: Near Mint (NM)
Устройство воспроизведения: Profi HiFi Sound
Предварительный усилитель: "Marantz"
Программа-оцифровщик: WaveEditor
Обработка: регулировка уровня громкости программой iZotope RX3,
Код: Выделить всё
Общее
Полное имя                               : F:\NNMClub\Modern Talking ‎– The 1-st Album  (1985) Vinyl, LP\A1. You're My Heart, You're My Soul - 5.36.flac
Формат                                   : FLAC
Формат/Информация                        : Free Lossless Audio Codec
Размер файла                             : 115 Мбайт
Продолжительность                        : 5 м. 35 с.
Режим общего битрейта                    : Переменный
Общий поток                              : 2888 Кбит/сек
Программа кодирования                    : Easy CD-DA Extractor (http://www.poikosoft.com)

Аудио
Формат                                   : FLAC
Формат/Информация                        : Free Lossless Audio Codec
Продолжительность                        : 5 м. 35 с.
Вид битрейта                             : Переменный
Битрейт                                  : 2888 Кбит/сек
Каналы                                   : 2 канала
Расположение каналов                     : Front: L R
Частота                                  : 96,0 КГц
Битовая глубина                          : 24 бит
Размер потока                            : 115 Мбайт (100%)
Библиотека кодирования                   : libFLAC 1.2.1 (UTC 2007-09-17)

Общее
Полное имя                               : F:\NNMClub\Modern Talking ‎– The 1-st Album  (1985) Vinyl, LP\A2. You Can Win If You Want - 3.55.flac
Формат                                   : FLAC
Формат/Информация                        : Free Lossless Audio Codec
Размер файла                             : 82,1 Мбайт
Продолжительность                        : 3 м. 50 с.
Режим общего битрейта                    : Переменный
Общий поток                              : 2988 Кбит/сек
Программа кодирования                    : Easy CD-DA Extractor (http://www.poikosoft.com)
Обложка                                  : Yes
Тип обложки                              : Cover (front)
MIME-тип обложки                         : image/jpeg

Аудио
Формат                                   : FLAC
Формат/Информация                        : Free Lossless Audio Codec
Продолжительность                        : 3 м. 50 с.
Вид битрейта                             : Переменный
Битрейт                                  : 2987 Кбит/сек
Каналы                                   : 2 канала
Расположение каналов                     : Front: L R
Частота                                  : 96,0 КГц
Битовая глубина                          : 24 бит
Размер потока                            : 82,0 Мбайт (100%)
Библиотека кодирования                   : libFLAC 1.2.1 (UTC 2007-09-17)

Общее
Полное имя                               : F:\NNMClub\Modern Talking ‎– The 1-st Album  (1985) Vinyl, LP\A3. There's Too Much Blue In Missing You - 5.30.flac
Формат                                   : FLAC
Формат/Информация                        : Free Lossless Audio Codec
Размер файла                             : 98,5 Мбайт
Продолжительность                        : 4 м. 42 с.
Режим общего битрейта                    : Переменный
Общий поток                              : 2927 Кбит/сек
Программа кодирования                    : Easy CD-DA Extractor (http://www.poikosoft.com)
Обложка                                  : Yes
Тип обложки                              : Cover (front)
MIME-тип обложки                         : image/jpeg

Аудио
Формат                                   : FLAC
Формат/Информация                        : Free Lossless Audio Codec
Продолжительность                        : 4 м. 42 с.
Вид битрейта                             : Переменный
Битрейт                                  : 2926 Кбит/сек
Каналы                                   : 2 канала
Расположение каналов                     : Front: L R
Частота                                  : 96,0 КГц
Битовая глубина                          : 24 бит
Размер потока                            : 98,5 Мбайт (100%)
Библиотека кодирования                   : libFLAC 1.2.1 (UTC 2007-09-17)

Общее
Полное имя                               : F:\NNMClub\Modern Talking ‎– The 1-st Album  (1985) Vinyl, LP\A4. Diamonds Never Made A Lady - 4.40.flac
Формат                                   : FLAC
Формат/Информация                        : Free Lossless Audio Codec
Размер файла                             : 87,4 Мбайт
Продолжительность                        : 4 м. 5 с.
Режим общего битрейта                    : Переменный
Общий поток                              : 2985 Кбит/сек
Программа кодирования                    : Easy CD-DA Extractor (http://www.poikosoft.com)
Обложка                                  : Yes
Тип обложки                              : Cover (front)
MIME-тип обложки                         : image/jpeg

Аудио
Формат                                   : FLAC
Формат/Информация                        : Free Lossless Audio Codec
Продолжительность                        : 4 м. 5 с.
Вид битрейта                             : Переменный
Битрейт                                  : 2983 Кбит/сек
Каналы                                   : 2 канала
Расположение каналов                     : Front: L R
Частота                                  : 96,0 КГц
Битовая глубина                          : 24 бит
Размер потока                            : 87,4 Мбайт (100%)
Библиотека кодирования                   : libFLAC 1.2.1 (UTC 2007-09-17)

Общее
Полное имя                               : F:\NNMClub\Modern Talking ‎– The 1-st Album  (1985) Vinyl, LP\B1. The Night Is Yours - The Night Is Mine - 4.22.flac
Формат                                   : FLAC
Формат/Информация                        : Free Lossless Audio Codec
Размер файла                             : 118 Мбайт
Продолжительность                        : 5 м. 31 с.
Режим общего битрейта                    : Переменный
Общий поток                              : 2976 Кбит/сек
Программа кодирования                    : Easy CD-DA Extractor (http://www.poikosoft.com)
Обложка                                  : Yes
Тип обложки                              : Cover (front)
MIME-тип обложки                         : image/jpeg

Аудио
Формат                                   : FLAC
Формат/Информация                        : Free Lossless Audio Codec
Продолжительность                        : 5 м. 31 с.
Вид битрейта                             : Переменный
Битрейт                                  : 2975 Кбит/сек
Каналы                                   : 2 канала
Расположение каналов                     : Front: L R
Частота                                  : 96,0 КГц
Битовая глубина                          : 24 бит
Размер потока                            : 118 Мбайт (100%)
Библиотека кодирования                   : libFLAC 1.2.1 (UTC 2007-09-17)

Общее
Полное имя                               : F:\NNMClub\Modern Talking ‎– The 1-st Album  (1985) Vinyl, LP\B2. Do You Wanna - 4.05.flac
Формат                                   : FLAC
Формат/Информация                        : Free Lossless Audio Codec
Размер файла                             : 93,1 Мбайт
Продолжительность                        : 4 м. 23 с.
Режим общего битрейта                    : Переменный
Общий поток                              : 2967 Кбит/сек
Программа кодирования                    : Easy CD-DA Extractor (http://www.poikosoft.com)
Обложка                                  : Yes
Тип обложки                              : Cover (front)
MIME-тип обложки                         : image/jpeg

Аудио
Формат                                   : FLAC
Формат/Информация                        : Free Lossless Audio Codec
Продолжительность                        : 4 м. 23 с.
Вид битрейта                             : Переменный
Битрейт                                  : 2966 Кбит/сек
Каналы                                   : 2 канала
Расположение каналов                     : Front: L R
Частота                                  : 96,0 КГц
Битовая глубина                          : 24 бит
Размер потока                            : 93,0 Мбайт (100%)
Библиотека кодирования                   : libFLAC 1.2.1 (UTC 2007-09-17)

Общее
Полное имя                               : F:\NNMClub\Modern Talking ‎– The 1-st Album  (1985) Vinyl, LP\B3. Lucky Guy - 3.31.flac
Формат                                   : FLAC
Формат/Информация                        : Free Lossless Audio Codec
Размер файла                             : 75,6 Мбайт
Продолжительность                        : 3 м. 30 с.
Режим общего битрейта                    : Переменный
Общий поток                              : 3011 Кбит/сек
Программа кодирования                    : Easy CD-DA Extractor (http://www.poikosoft.com)
Обложка                                  : Yes
Тип обложки                              : Cover (front)
MIME-тип обложки                         : image/jpeg

Аудио
Формат                                   : FLAC
Формат/Информация                        : Free Lossless Audio Codec
Продолжительность                        : 3 м. 30 с.
Вид битрейта                             : Переменный
Битрейт                                  : 3010 Кбит/сек
Каналы                                   : 2 канала
Расположение каналов                     : Front: L R
Частота                                  : 96,0 КГц
Битовая глубина                          : 24 бит
Размер потока                            : 75,6 Мбайт (100%)
Библиотека кодирования                   : libFLAC 1.2.1 (UTC 2007-09-17)

Общее
Полное имя                               : F:\NNMClub\Modern Talking ‎– The 1-st Album  (1985) Vinyl, LP\B4. One In A Million - 3.44.flac
Формат                                   : FLAC
Формат/Информация                        : Free Lossless Audio Codec
Размер файла                             : 80,4 Мбайт
Продолжительность                        : 3 м. 43 с.
Режим общего битрейта                    : Переменный
Общий поток                              : 3023 Кбит/сек
Программа кодирования                    : Easy CD-DA Extractor (http://www.poikosoft.com)
Обложка                                  : Yes
Тип обложки                              : Cover (front)
MIME-тип обложки                         : image/jpeg

Аудио
Формат                                   : FLAC
Формат/Информация                        : Free Lossless Audio Codec
Продолжительность                        : 3 м. 43 с.
Вид битрейта                             : Переменный
Битрейт                                  : 3022 Кбит/сек
Каналы                                   : 2 канала
Расположение каналов                     : Front: L R
Частота                                  : 96,0 КГц
Битовая глубина                          : 24 бит
Размер потока                            : 80,4 Мбайт (100%)
Библиотека кодирования                   : libFLAC 1.2.1 (UTC 2007-09-17)

Общее
Полное имя                               : F:\NNMClub\Modern Talking ‎– The 1-st Album  (1985) Vinyl, LP\B5. Bells Of Paris - 4.17.flac
Формат                                   : FLAC
Формат/Информация                        : Free Lossless Audio Codec
Размер файла                             : 89,9 Мбайт
Продолжительность                        : 4 м. 15 с.
Режим общего битрейта                    : Переменный
Общий поток                              : 2948 Кбит/сек
Программа кодирования                    : Easy CD-DA Extractor (http://www.poikosoft.com)
Обложка                                  : Yes
Тип обложки                              : Cover (front)
MIME-тип обложки                         : image/jpeg

Аудио
Формат                                   : FLAC
Формат/Информация                        : Free Lossless Audio Codec
Продолжительность                        : 4 м. 15 с.
Вид битрейта                             : Переменный
Битрейт                                  : 2947 Кбит/сек
Каналы                                   : 2 канала
Расположение каналов                     : Front: L R
Частота                                  : 96,0 КГц
Битовая глубина                          : 24 бит
Размер потока                            : 89,9 Мбайт (100%)
Библиотека кодирования                   : libFLAC 1.2.1 (UTC 2007-09-17)

Общее
Полное имя                               : F:\NNMClub\Modern Talking ‎– The 1-st Album  (1985) Vinyl, LP\Scans\back.jpg
Формат                                   : JPEG
Размер файла                             : 93,7 Кбайт

Изображения
Формат                                   : JPEG
Ширина                                   : 600 пикселей
Высота                                   : 600 пикселей
Цветовое пространство                    : YUV
Субдискретизация насыщенности            : 4:4:4
Битовая глубина                          : 8 бит
Метод сжатия                             : С потерями
Размер потока                            : 93,7 Кбайт (100%)

Общее
Полное имя                               : F:\NNMClub\Modern Talking ‎– The 1-st Album  (1985) Vinyl, LP\Scans\front.jpg
Формат                                   : JPEG
Размер файла                             : 100 Кбайт

Изображения
Формат                                   : JPEG
Ширина                                   : 600 пикселей
Высота                                   : 600 пикселей
Цветовое пространство                    : YUV
Субдискретизация насыщенности            : 4:4:4
Битовая глубина                          : 8 бит
Метод сжатия                             : С потерями
Размер потока                            : 100 Кбайт (100%)

Общее
Полное имя                               : F:\NNMClub\Modern Talking ‎– The 1-st Album  (1985) Vinyl, LP\Scans\inlay 1.jpg
Формат                                   : JPEG
Размер файла                             : 69,1 Кбайт

Изображения
Формат                                   : JPEG
Ширина                                   : 600 пикселей
Высота                                   : 600 пикселей
Цветовое пространство                    : YUV
Субдискретизация насыщенности            : 4:4:4
Битовая глубина                          : 8 бит
Метод сжатия                             : С потерями
Размер потока                            : 69,1 Кбайт (100%)

Общее
Полное имя                               : F:\NNMClub\Modern Talking ‎– The 1-st Album  (1985) Vinyl, LP\Scans\inlay.jpg
Формат                                   : JPEG
Размер файла                             : 76,2 Кбайт

Изображения
Формат                                   : JPEG
Ширина                                   : 600 пикселей
Высота                                   : 600 пикселей
Цветовое пространство                    : YUV
Субдискретизация насыщенности            : 4:4:4
Битовая глубина                          : 8 бит
Метод сжатия                             : С потерями
Размер потока                            : 76,2 Кбайт (100%)

Общее
Полное имя                               : F:\NNMClub\Modern Talking ‎– The 1-st Album  (1985) Vinyl, LP\Scans\Seite 1.jpg
Формат                                   : JPEG
Размер файла                             : 137 Кбайт

Изображения
Формат                                   : JPEG
Ширина                                   : 600 пикселей
Высота                                   : 600 пикселей
Цветовое пространство                    : YUV
Субдискретизация насыщенности            : 4:4:4
Битовая глубина                          : 8 бит
Метод сжатия                             : С потерями
Размер потока                            : 137 Кбайт (100%)

Общее
Полное имя                               : F:\NNMClub\Modern Talking ‎– The 1-st Album  (1985) Vinyl, LP\Scans\Seite 2.jpg
Формат                                   : JPEG
Размер файла                             : 137 Кбайт

Изображения
Формат                                   : JPEG
Ширина                                   : 600 пикселей
Высота                                   : 600 пикселей
Цветовое пространство                    : YUV
Субдискретизация насыщенности            : 4:4:4
Битовая глубина                          : 8 бит
Метод сжатия                             : С потерями
Размер потока                            : 137 Кбайт (100%)
Код: Выделить всё
foobar2000 1.3.9 / Замер динамического диапазона (DR) 1.1.1
Дата отчёта:2018-10-15 19:25:01

--------------------------------------------------------------------------------
Анализ:   ? / ?
--------------------------------------------------------------------------------

DR         Пики         RMS           Продолжительность трека
--------------------------------------------------------------------------------
DR12      -0.26 дБ   -15.30 дБ      5:35 ?-A1. You're My Heart, You're My Soul - 5.36
DR11      -0.26 дБ   -14.18 дБ      3:50 ?-A2. You Can Win If You Want - 3.55
DR11      -0.26 дБ   -14.22 дБ      4:42 ?-A3. There's Too Much Blue In Missing You - 5.30
DR10      -0.26 дБ   -13.06 дБ      4:06 ?-A4. Diamonds Never Made A Lady - 4.40
DR11      -0.26 дБ   -13.84 дБ      5:32 ?-B1. The Night Is Yours - The Night Is Mine - 4.22
DR12      -0.26 дБ   -14.12 дБ      4:23 ?-B2. Do You Wanna - 4.05
DR11      -0.26 дБ   -15.37 дБ      3:31 ?-B3. Lucky Guy - 3.31
DR11      -0.26 дБ   -12.62 дБ      3:43 ?-B4. One In A Million - 3.44
DR12      -0.26 дБ   -14.54 дБ      4:16 ?-B5. Bells Of Paris - 4.17
--------------------------------------------------------------------------------

Количество треков:9
Реальные значения DR:DR11

Частота:96000 Гц
Каналов:2
Разрядность: 24
Битрейт:2947 кбит/с
Кодек:FLAC
================================================================================
Не забывайте говорить Спасибо. Не уходите с раздачи!   
Торрент: Зарегистрирован [15 окт 2018, 19:33] Для скачивания .torrent
необходима регистрация
Или скачать с помощью
MediaGet
Статус:
Проверен
 
.torrent скачан: 0 раз
Размер: 840.63 МБ (881 466 370 байт)
   Стать Автором раздачи
   
Цитата
  • Похожие торренты
    Ответы
    Просмотры
    Последнее сообщение

Вернуться в Vinyl-Rip и Hand-Made

Кто сейчас на конференции

Сейчас эту тему просматривают: нет зарегистрированных пользователей и гости: 1