Judas Priest - British Steel (1980) [FLAC 2.0|192/24|image +.cue|Vinyl-Rip] <Heavy Metal>

 Статистика раздачи 
Размер: 1.42 ГБ   |  Зарегистрирован: 16 окт 2018, 17:35   |   .torrent скачан: 0 раз
Сидеров: 3  [ 0 байт/сек ]     Личеров: 2  [ 0 байт/сек ]  
  
Аватара пользователя
 
Раздал: 1.44 ТБ
Скачал: 26.32 ГБ
Ратио: 55.955
Сообщения: 175329
Стаж: 2 года 4 месяца 17 дней

Judas Priest - British Steel (1980)

Label: CBS.
Catalog #: CBS 84160
Жанр: Heavy Metal
Продолжительность: 00:36:06
Оцифровка выполнена: bazar

Кодек: FLAC 2.0
Формат раздачи: 192/24
Тип рипа: image + .cue

Треклист:
01. Rapid Fire (4:08)
02. Metal Gods (4:00)
03. Breaking The Law (2:36)
04. Grinder (3:58)
05. United (3:32)
06. You Don't Have To Be Old To Be Wise (5:04)
07. Living After Midnight (3:32)
08. The Rage (4:45)
09. Steeler (4:31)
Код класса состояния винила: VG
Устройство воспроизведения: Technics SL-1200MK5
Предварительный усилитель: PS audio GCPH Mod1
АЦП: LynxTwo
Программа-оцифровщик: LynxTwo
Код: Выделить всё
Общее
Полное имя                               : C:\Users\aDuard72\Desktop\Judas Priest - British Steel\Judas Priest - British Steel.flac
Формат                                   : FLAC
Формат/Информация                        : Free Lossless Audio Codec
Размер файла                             : 1,41 Гбайт
Продолжительность                        : 36 м. 6 с.
Режим общего битрейта                    : Переменный
Общий поток                              : 5590 Кбит/сек
Альбом                                   : British Steel
Альбом/Исполнитель                       : British Steel
Трек/Всего                               : 9
Исполнитель                              : Judas Priest
Жанр                                     : Heavy Metal
Дата записи                              : 1980
cuesheet                                 : REM GENRE Heavy Metal / REM DATE 1980 / PERFORMER "British Steel" / TITLE "British Steel" / FILE "CDImage.wav" WAVE /   TRACK 01 AUDIO /     TITLE "Rapid Fire" /     PERFORMER "Judas Priest" /     INDEX 01 00:00:00 /   TRACK 02 AUDIO /     TITLE "Metal Gods" /     PERFORMER "Judas Priest" /     INDEX 01 04:08:00 /   TRACK 03 AUDIO /     TITLE "Breaking The Law" /     PERFORMER "Judas Priest" /     INDEX 01 08:08:00 /   TRACK 04 AUDIO /     TITLE "Grinder" /     PERFORMER "Judas Priest" /     INDEX 01 10:44:00 /   TRACK 05 AUDIO /     TITLE "United" /     PERFORMER "Judas Priest" /     INDEX 01 14:42:00 /   TRACK 06 AUDIO /     TITLE "You Don't Have To Be Old To Be Wise" /     PERFORMER "Judas Priest" /     INDEX 01 18:14:00 /   TRACK 07 AUDIO /     TITLE "Living After Midnight" /     PERFORMER "Judas Priest" /     INDEX 01 23:18:00 /   TRACK 08 AUDIO /     TITLE "The Rage" /     PERFORMER "Judas Priest" /     INDEX 01 26:50:00 /   TRACK 09 AUDIO /     TITLE "Steeler" /     PERFORMER "Judas Priest" /     INDEX 01 31:35:00

Аудио
Формат                                   : FLAC
Формат/Информация                        : Free Lossless Audio Codec
Продолжительность                        : 36 м. 6 с.
Вид битрейта                             : Переменный
Битрейт                                  : 5590 Кбит/сек
Каналы                                   : 2 канала
Расположение каналов                     : Front: L R
Частота                                  : 192 КГц
Битовая глубина                          : 24 бит
Размер потока                            : 1,41 Гбайт (100%)
Библиотека кодирования                   : libFLAC 1.2.1 (UTC 2007-09-17)
Время раздачи: Пн-Пт с 18:00 до 21:00 , Сб-Вс с 09:00 до 21:00 (до появления первых 3-5 скачавших)
Не забывайте говорить Спасибо. Не уходите с раздачи!   
Торрент: Зарегистрирован [16 окт 2018, 17:35] Для скачивания .torrent
необходима регистрация
Или скачать с помощью
MediaGet
Статус:
Проверен
 
.torrent скачан: 0 раз
Хэш: 03be611d1bad9e26b3e4a979616b4983a45386c1
Размер: 1.42 ГБ (1 520 212 681 байт)
   Стать Автором раздачи
   
Цитата
  • Похожие торренты
    Ответы
    Просмотры
    Последнее сообщение

Вернуться в Vinyl-Rip и Hand-Made

Кто сейчас на конференции

Сейчас эту тему просматривают: нет зарегистрированных пользователей и гости: 1