Анна Герман - Последняя встреча (2000) [FLAC 2.0|48/24|image+.cue|MC-Rip] <Pop>

 Статистика раздачи 
Размер: 968.98 МБ   |  Зарегистрирован: 25 сен 2018, 12:24   |   .torrent скачан: 0 раз
Сидеров: 1  [ 0 байт/сек ]     Личеров: 1  [ 0 байт/сек ]  
  
Аватара пользователя
 
Раздал: 1.44 ТБ
Скачал: 26.32 ГБ
Ратио: 55.955
Сообщения: 175329
Стаж: 2 года 4 месяца 17 дней

Анна Герман - Последняя встреча (2000)

Автор рипа: samopal records
Жанр: Pop
Продолжительность: 01:19:44
Издание: Парк Звёзд (Russia)
Номер по каталогу: МС 01-2б
Кодек: FLAC2.0
Формат записи: 24/96
Формат раздачи: 24/48
Реальные значения DR: DR12
Источник: Cassette, Compilation
Треклист:
01. Эхо любви
02. При ходит время
03. Я люблю танцевать
04. Надежда
05. А он мне нравится
06. Письмо солдату
07. Случайность
08. Гори, гори моя звезда
09. Пожелание счастья
10. Письмо Шопену
11. Возвращение романса
12. Когда цвели сады
13. Осенняя песня
14. Колыбельная
15. Я жду весну
16. Сумерки
17. Грошики фантазий
18. Реченька туманная
19. По грибы
20. Ночной разговор
21. Город влюбленных
22. Далек тот день
23. Последняя встреча

Носитель: MC
Код класса состояния MC: VG
Устройство воспроизведения: AKAI GX 95MK2
Фонокорректор: встроенный
АЦП: ESI Juli@
Программа-оцифровщик: Adobe Audition
Обработка: удаление артефактов

Код: Выделить всё
Общее
Полное имя                               : E:\Анна Герман - Последняя встреча [MC] - 2000 (lossless)\01. Сторона А.flac
Формат                                   : FLAC
Формат/Информация                        : Free Lossless Audio Codec
Размер файла                             : 527 Мбайт
Продолжительность                        : 43 м.
Режим общего битрейта                    : Переменный
Общий поток                              : 1685 Кбит/сек
Дата записи                              : 2018-09-23T18:29:39+06:00

Аудио
Формат                                   : FLAC
Формат/Информация                        : Free Lossless Audio Codec
Продолжительность                        : 43 м.
Вид битрейта                             : Переменный
Битрейт                                  : 1685 Кбит/сек
Каналы                                   : 2 канала
Расположение каналов                     : Front: L R
Частота                                  : 48,0 КГц
Битовая глубина                          : 24 бит
Размер потока                            : 527 Мбайт (100%)
Библиотека кодирования                   : libFLAC 1.2.1 (UTC 2007-09-17)

Общее
Полное имя                               : E:\Анна Герман - Последняя встреча [MC] - 2000 (lossless)\02. Сторона В.flac
Формат                                   : FLAC
Формат/Информация                        : Free Lossless Audio Codec
Размер файла                             : 434 Мбайт
Продолжительность                        : 36 м.
Режим общего битрейта                    : Переменный
Общий поток                              : 1682 Кбит/сек
Дата записи                              : 2018-09-23T19:24:46+06:00

Аудио
Формат                                   : FLAC
Формат/Информация                        : Free Lossless Audio Codec
Продолжительность                        : 36 м.
Вид битрейта                             : Переменный
Битрейт                                  : 1682 Кбит/сек
Каналы                                   : 2 канала
Расположение каналов                     : Front: L R
Частота                                  : 48,0 КГц
Битовая глубина                          : 24 бит
Размер потока                            : 434 Мбайт (100%)
Библиотека кодирования                   : libFLAC 1.2.1 (UTC 2007-09-17)
Код: Выделить всё
foobar2000 1.1.3 / Dynamic Range Meter 1.1.1
log date: 2018-09-25 14:33:22

--------------------------------------------------------------------------------
Analyzed: Анна Герман / Последняя встреча
--------------------------------------------------------------------------------

DR         Peak         RMS     Duration Track
--------------------------------------------------------------------------------
DR11      -2.53 dB   -17.81 dB      3:21 ?-01. Эхо любви
DR13      -0.10 dB   -16.50 dB      2:20 ?-02. При ходит время
DR14      -1.01 dB   -16.67 dB      2:39 ?-03. Я люблю танцевать
DR14      -1.80 dB   -17.23 dB      3:44 ?-04. Надежда
DR13      -0.85 dB   -17.71 dB      3:07 ?-05. А он мне нравится
DR12      -0.31 dB   -14.19 dB      2:17 ?-06. Письмо солдату
DR15      -0.10 dB   -17.68 dB      4:01 ?-07. Случайность
DR12      -2.42 dB   -19.35 dB      4:43 ?-08. Гори, гори моя звезда
DR11      -0.35 dB   -15.10 dB      3:35 ?-09. Пожелание счастья
DR14      -2.20 dB   -20.43 dB      4:06 ?-10. Письмо Шопену
DR13      -3.69 dB   -22.86 dB      4:57 ?-11. Возвращение романса
DR13      -1.64 dB   -17.76 dB      4:52 ?-12. Когда цвели сады
DR16      -2.51 dB   -22.69 dB      3:47 ?-13. Осенняя песня
DR10      -3.31 dB   -15.15 dB      2:55 ?-14. Колыбельная
DR15      -1.61 dB   -19.61 dB      3:26 ?-15. Я жду весну
DR15      -0.10 dB   -19.06 dB      3:21 ?-16. Сумерки
DR10      -1.99 dB   -14.44 dB      2:07 ?-17. Грошики фантазий
DR8       -2.76 dB   -13.25 dB      3:16 ?-18. Реченька туманная
DR9       -1.33 dB   -13.29 dB      2:04 ?-19. По грибы
DR9       -3.76 dB   -14.21 dB      3:00 ?-20. Ночной разговор
DR10      -3.55 dB   -18.08 dB      5:11 ?-21. Город влюбленных
DR8       -1.85 dB   -14.04 dB      2:55 ?-22. Далек тот день
DR16      -0.10 dB   -19.95 dB      4:01 ?-23. Последняя встреча
--------------------------------------------------------------------------------

Number of tracks:  23
Official DR value: DR12

Samplerate:        48000 Hz
Channels:          2
Bits per sample:   24
Bitrate:           1682 kbps
Codec:             FLAC
================================================================================

Код: Выделить всё
REM GENRE "Pop"
REM DATE "2000"
REM COMMENT "Cassette, Compilation, Парк Звёзд - МС 01-2б Russia "
PERFORMER "Анна Герман"
TITLE "Последняя встреча"
FILE "01. Сторона А.flac" WAVE
  TRACK 01 AUDIO
    TITLE "01. Эхо любви"
    INDEX 01 00:00:00
  TRACK 02 AUDIO
    TITLE "02. При ходит время"
    INDEX 01 03:20:48
  TRACK 03 AUDIO
    TITLE "03. Я люблю танцевать"
    INDEX 01 05:40:73
  TRACK 04 AUDIO
    TITLE "04. Надежда"
    INDEX 01 08:19:49
  TRACK 05 AUDIO
    TITLE "05. А он мне нравится"
    INDEX 01 12:03:41
  TRACK 06 AUDIO
    TITLE "06. Письмо солдату"
    INDEX 01 15:11:00
  TRACK 07 AUDIO
    TITLE "07. Случайность"
    INDEX 01 17:27:62
  TRACK 08 AUDIO
    TITLE "08. Гори, гори моя звезда"
    INDEX 01 21:28:45
  TRACK 09 AUDIO
    TITLE "09. Пожелание счастья"
    INDEX 01 26:11:48
  TRACK 10 AUDIO
    TITLE "10. Письмо Шопену"
    INDEX 01 29:46:11
  TRACK 11 AUDIO
    TITLE "11. Возвращение романса"
    INDEX 01 33:51:74
  TRACK 12 AUDIO
    TITLE "12. Когда цвели сады"
    INDEX 01 38:49:10
FILE "02. Сторона В.flac" WAVE
  TRACK 13 AUDIO
    TITLE "13. Осенняя песня"
    INDEX 01 00:00:00
  TRACK 14 AUDIO
    TITLE "14. Колыбельная"
    INDEX 01 03:47:30
  TRACK 15 AUDIO
    TITLE "15. Я жду весну"
    INDEX 01 06:42:41
  TRACK 16 AUDIO
    TITLE "16. Сумерки"
    INDEX 01 10:08:68
  TRACK 17 AUDIO
    TITLE "17. Грошики фантазий"
    INDEX 01 13:29:39
  TRACK 18 AUDIO
    TITLE "18. Реченька туманная"
    INDEX 01 15:36:51
  TRACK 19 AUDIO
    TITLE "19. По грибы"
    INDEX 01 18:52:36
  TRACK 20 AUDIO
    TITLE "20. Ночной разговор"
    INDEX 01 20:56:00
  TRACK 21 AUDIO
    TITLE "21. Город влюбленных"
    INDEX 01 23:55:38
  TRACK 22 AUDIO
    TITLE "22. Далек тот день"
    INDEX 01 29:06:55
  TRACK 23 AUDIO
    TITLE "23. Последняя встреча"
    INDEX 01 32:01:27
Время раздачи:
По выходным дням (до появления первых 3-5 скачавших)
Не забывайте говорить Спасибо. Не уходите с раздачи!   
Торрент: Зарегистрирован [25 сен 2018, 12:24] Для скачивания .torrent
необходима регистрация
Или скачать с помощью
MediaGet
Статус:
Проверен
 
.torrent скачан: 0 раз
Хэш: a3068d0bb405a4281e9b8ff6d5a17415e06fd359
Размер: 968.98 МБ (1 016 052 954 байт)
   Стать Автором раздачи
   
Цитата
  • Похожие торренты
    Ответы
    Просмотры
    Последнее сообщение

Вернуться в Vinyl-Rip и Hand-Made

Кто сейчас на конференции

Сейчас эту тему просматривают: нет зарегистрированных пользователей и гости: 1