Без тебя / Tum Bin... (Love Will Find a Way) / (Анубхав Синха / Anubhav Sinha) [2001, Индия, мелодрама, драма, WEBRip-AVC] DVO + Original Hin

 Статистика раздачи 
Размер: 1.6 ГБ   |  Зарегистрирован: 06 окт 2018, 18:04   |   .torrent скачан: 0 раз
Сидеров: 5  [ 0 байт/сек ]     Личеров: 1  [ 0 байт/сек ]  
  
Аватара пользователя
Главный редактор
Главный редактор
 
Раздал: 53.85 ТБ
Скачал: 2.58 ТБ
Ратио: 21.280
Сообщения: 157072
Стаж: 8 лет 18 дней
Откуда: Санкт-Петербург

Без тебя / Tum Bin...

«Love will find a way»
Год выпуска: 2001
Страна: Индия
Жанр: мелодрама
Продолжительность: 02:32:08
Перевод: Профессиональный (двухголосый)
Режиссер: Анубхав Синха / Anubhav Sinha
В ролях: Прияншу Чаттерджи, Химаншу Малик, Сандали Синха, Ракеш Бапат, Викрам Гокхале, Раджеш Кхера, Навнит Нишан, Раджендра Гупта, Враджеш Хирджи, Крис Ипполито
Описание: Молодой предприниматель Шекхар по нелепой случайности становится виновником смерти своего коллеги Амара, приехавшего в Индию из Канады на несколько дней. Под гнётом собственной вины Шекхар отправляется в Канаду, чтобы хоть как-то помочь родственникам Амара. Здесь он знакомится с Прийей - невестой Амара. Шекхар влюбляется в Прийю, но сможет ли он рассказать ей правду о гибели жениха, да и полиция разыскивает его, как обвиняемого...
Доп. информация: В 2001 году фильм вошел в семерку самых кассовых фильмов года
IMDB | Кинопоиск
Качество: WEBRip-AVC | Sample
Формат: MKV
Видео: AVC, 1280x544 (2.35:1), 993 kbps, 25.000 fps
Аудио #1: AC-3, 48.0 KHz, 6 ch, 384 Kbps, CBR (Russian)
Аудио #2: AAC LC, 44.1 KHz, 2 ch (Hindi)







Код: Выделить всё
Общее
Уникальный идентификатор                 : 186532993346297345209361630963887595480 (0x8C54F29FC18412D39B4FCBD25D915FD8)
Полное имя                               : G:\Video\Без тебя. Tum Bin (720p)[2001].mkv
Формат                                   : Matroska
Версия формата                           : Version 4
Размер файла                             : 1,60 Гбайт
Продолжительность                        : 2 ч. 32 м.
Общий поток                              : 1505 Кбит/сек
Название фильма                          : ~ jasinpapa ~
Дата кодирования                         : UTC 2018-10-06 17:58:30
Программа кодирования                    : mkvmerge v27.0.0 ('Metropolis') 64-bit
Библиотека кодирования                   : libebml v1.3.6 + libmatroska v1.4.9
Attachments                              : poster-of-tum-bin-201603-692166.jpg
Видео
Идентификатор                            : 1
Формат                                   : AVC
Формат/Информация                        : Advanced Video Codec
Профиль формата                          : Main@L3.1
Настройки формата                        : CABAC / 3 Ref Frames
Параметр CABAC формата                   : Да
Параметр RefFrames формата               : 3 кадра
Идентификатор кодека                     : V_MPEG4/ISO/AVC
Продолжительность                        : 2 ч. 32 м.
Битрейт                                  : 993 Кбит/сек
Ширина                                   : 1280 пикселей
Высота                                   : 544 пикселя
Соотношение сторон                       : 2,35:1
Режим частоты кадров                     : Постоянный
Частота кадров                           : 25,000 кадров/сек
Цветовое пространство                    : YUV
Субдискретизация насыщенности            : 4:2:0
Битовая глубина                          : 8 бит
Тип развёртки                            : Прогрессивная
Бит/(Пиксели*Кадры)                      : 0.057
Размер потока                            : 1,06 Гбайт (66%)
Default                                  : Да
Forced                                   : Нет
Цветовой диапазон                        : Limited
Основные цвета                           : BT.709
Характеристики трансфера                 : BT.709
Коэффициенты матрицы                     : BT.709
Аудио #1
Идентификатор                            : 2
Формат                                   : AC-3
Формат/Информация                        : Audio Coding 3
Коммерческое название                    : Dolby Digital
Идентификатор кодека                     : A_AC3
Продолжительность                        : 2 ч. 32 м.
Вид битрейта                             : Постоянный
Битрейт                                  : 384 Кбит/сек
Каналы                                   : 6 каналов
Channel layout                           : L R C LFE Ls Rs
Частота                                  : 48,0 КГц
Частота кадров                           : 31,250 кадров/сек (1536 SPF)
Битовая глубина                          : 16 бит
Метод сжатия                             : С потерями
Размер потока                            : 418 Мбайт (26%)
Язык                                     : Russian
ServiceKind/String                       : Complete Main
Default                                  : Да
Forced                                   : Нет
Аудио #2
Идентификатор                            : 3
Формат                                   : AAC LC
Формат/Информация                        : Advanced Audio Codec Low Complexity
Идентификатор кодека                     : A_AAC-2
Продолжительность                        : 2 ч. 32 м.
Битрейт                                  : 126 Кбит/сек
Каналы                                   : 2 канала
Channel layout                           : L R
Частота                                  : 44,1 КГц
Частота кадров                           : 43,066 кадра/сек (1024 SPF)
Метод сжатия                             : С потерями
Размер потока                            : 137 Мбайт (8%)
Язык                                     : Hindi
Default                                  : Нет
Forced                                   : Нет
Не забывайте говорить Спасибо. Не уходите с раздачи!   
Торрент: Зарегистрирован [06 окт 2018, 18:04] Для скачивания .torrent
необходима регистрация
Или скачать с помощью
MediaGet
Статус:
Проверен
 
.torrent скачан: 0 раз
Размер: 1.6 ГБ (1 717 556 544 байт)
   Стать Автором раздачи
   
Цитата
  • Похожие торренты
    Ответы
    Просмотры
    Последнее сообщение

Вернуться в Индийское кино

Кто сейчас на конференции

Сейчас эту тему просматривают: нет зарегистрированных пользователей и гости: 1