Неистовая / Взаимное притяжение / Зов крови / Jazbaa (Санджай Гупта / Sanjay Gupta) [2015, Индия, боевик, триллер, драма, криминал, HDRip] MVO (Astana TV)

 Статистика раздачи 
Размер: 2.16 ГБ   |  Зарегистрирован: 26 авг 2018, 07:48   |   .torrent скачан: 0 раз
Сидеров: 1  [ 0 байт/сек ]     Личеров: 1  [ 0 байт/сек ]  
  
Аватара пользователя
Главный редактор
Главный редактор
Я на сайте
 
Раздал: 53.86 ТБ
Скачал: 2.6 ТБ
Ратио: 21.163
Сообщения: 157307
Стаж: 8 лет 21 день
Откуда: Санкт-Петербург

Неистовая

Jazbaa
Год выпуска: 2015
Страна: Индия
Жанр: боевик, триллер, драма, криминал
Продолжительность: 01:55:13
Перевод: Профессиональный (многоголосый закадровый)
Субтитры: отсутствуют
Режиссёр: Санджай Гупта: Sanjay Gupta
В ролях: Айшвария Рай Баччан, Ирфан Кхан, Шабана Азми, Джеки Шрофф, Атул Кулкарни, Чандан Рой Саньял, Синг Амбхимани Шехар, Таран Баджадж, Сиддхант Капур
О фильме: Главным действующим лицом фильма является женщина-юрист. Также в истории задействованы отстраненный от службы полицейский, мать, главный злодей и больной человек, проходящий психиатрическое лечение.
Данный перевод появляется на трекере впервые.

Семпл: http://sendfile.su/1438269
Качество: HDRip
Формат: AVI
Видео: XviD, 720x304 (2,35:1), 25 fps, ~2250 kbps, 0.411 bit/pixel
Аудио #1: [RUS] 48 kHz, AC3, 2 ch [dualmono], 192 kbps
Аудио #2: [HIN] 44,1 kHz, AC3, 2 ch, 224 kbps
Код: Выделить всё
General
Complete name               : H:\Раздачи\Jazbaa.2015.MVO.Astana.avi
Format                      : AVI
Format/Info                 : Audio Video Interleave
Format profile              : OpenDML
File size                   : 2.16 GiB
Duration                    : 1 h 55 min
Overall bit rate            : 2 684 kb/s
Writing application         : VirtualDubMod 1.5.10.2 (build 2540/release)
Writing library             : VirtualDubMod build 2540/release
Video
ID                          : 0
Format                      : MPEG-4 Visual
Format profile              : Advanced Simple@L5
Format settings             : BVOP1
Format settings, BVOP       : 1
Format settings, QPel       : No
Format settings, GMC        : No warppoints
Format settings, Matrix     : Default (MPEG)
Codec ID                    : XVID
Codec ID/Hint               : XviD
Duration                    : 1 h 55 min
Bit rate                    : 2 250 kb/s
Width                       : 720 pixels
Height                      : 304 pixels
Display aspect ratio        : 2.35:1
Frame rate                  : 25.000 FPS
Color space                 : YUV
Chroma subsampling          : 4:2:0
Bit depth                   : 8 bits
Scan type                   : Progressive
Compression mode            : Lossy
Bits/(Pixel*Frame)          : 0.411
Stream size                 : 1.81 GiB (84%)
Writing library             : XviD 73
Audio #1
ID                          : 1
Format                      : AC-3
Format/Info                 : Audio Coding 3
Codec ID                    : 2000
Duration                    : 1 h 55 min
Bit rate mode               : Constant
Bit rate                    : 192 kb/s
Channel(s)                  : 2 channels
Channel positions           : Front: L R
Sampling rate               : 48.0 kHz
Frame rate                  : 31.250 FPS (1536 SPF)
Bit depth                   : 16 bits
Compression mode            : Lossy
Stream size                 : 158 MiB (7%)
Alignment                   : Split accross interleaves
Interleave, duration        : 40  ms (1.00 video frame)
Interleave, preload duratio : 500  ms
Service kind                : Complete Main
Audio #2
ID                          : 2
Format                      : AC-3
Format/Info                 : Audio Coding 3
Codec ID                    : 2000
Duration                    : 1 h 55 min
Bit rate mode               : Constant
Bit rate                    : 224 kb/s
Channel(s)                  : 2 channels
Channel positions           : Front: L R
Sampling rate               : 44.1 kHz
Frame rate                  : 28.711 FPS (1536 SPF)
Bit depth                   : 16 bits
Compression mode            : Lossy
Stream size                 : 185 MiB (8%)
Alignment                   : Aligned on interleaves
Interleave, duration        : 40  ms (1.00 video frame)
Interleave, preload duratio : 522  ms
Service kind                : Complete Main
Не забывайте говорить Спасибо. Не уходите с раздачи!   
Торрент: Зарегистрирован [26 авг 2018, 07:48] Для скачивания .torrent
необходима регистрация
Или скачать с помощью
MediaGet
Статус:
Проверен
 
.torrent скачан: 0 раз
Хэш: 8de2a35a65b3ecfd0606905a4e9c84b32e121613
Размер: 2.16 ГБ (2 322 456 576 байт)
   Стать Автором раздачи
   
Цитата

Вернуться в Индийское кино

Кто сейчас на конференции

Сейчас эту тему просматривают: нет зарегистрированных пользователей и гости: 1