Река любви / Ishqedarriyaan (В.К. Пракаш / V.K. Prakash) [2015, Индия, мелодрама, DVB] MVO (Astana TV)

 Статистика раздачи 
Размер: 1.88 ГБ   |  Зарегистрирован: 28 окт 2018, 13:48   |   .torrent скачан: 1 раз
Сидеров: 9  [ 0 байт/сек ]     Личеров: 4  [ 0 байт/сек ]  
  
Аватара пользователя
Главный редактор
Главный редактор
Я на сайте
 
Раздал: 53.86 ТБ
Скачал: 2.6 ТБ
Ратио: 21.163
Сообщения: 159565
Стаж: 8 лет 25 дней
Откуда: Санкт-Петербург

Река любви

Ishqedarriyaan
Страна: Индия
Жанр: мелодрама
Продолжительность: 02:07:18
Год выпуска: 2015
Перевод: Профессиональный (многоголосый закадровый)
Субтитры: отсутствуют
Режиссёр: В.К. Пракаш: V.K. Prakash
В ролях: Махакшай (Мимох) Чакраборти, Эвелин Шарма, Врушали Чаван, Кавин Дэйв, Рави Кхему, Сухасини Мулай, Мохит Дутта.
О фильме: Агам Диван, справедливый и честный бизнесмен, посещает семьи, которые стали жертвами неправильных поступков отца. Во время одного из таких визитов в такую семью он встречает Лавлин, школа которой находится на грани закрытия из-за отсутствия финансов. В конце концов он влюбляется в нее, не подозревая, что она влюблена в другого человека, певца из её города по имени Арджун. Тем не менее, семья Арджуна не одобряет их отношений в связи с их более высоким статусом.
Агам помогает Лавлин решить её финансовые проблемы, скрыв от неё, что он сын того самого человека, который обидел её семью…


Семпл: https://www.sendspace.com/file/j811j4
Данный фильм вместе с русским переводом появляется на трекере впервые.
Качество: DVB [Astana TV] (эфир 27.10.2018)
Формат: TS
Видео: AVC, 720x576 @ 1047x576 (16:9), 25 fps, ~1819 kbps, 0.175 bit/pixel
Аудио: [RUS] 48 kHz, MP2, 2 ch, 192 kbps
Код: Выделить всё
General
ID                          : 1 (0x1)
Complete name               : H:\Раздачи\Река любви (2015) [Astana TV].ts
Format                      : MPEG-TS
File size                   : 1.88 GiB
Duration                    : 2 h 7 min
Overall bit rate mode       : Variable
Overall bit rate            : 2 117 kb/s
Video
ID                          : 67 (0x43)
Menu ID                     : 1 (0x1)
Format                      : AVC
Format/Info                 : Advanced Video Codec
Format profile              : High@L3
Format settings             : CABAC / 3 Ref Frames
Format settings, CABAC      : Yes
Format settings, ReFrames   : 3 frames
Codec ID                    : 27
Duration                    : 2 h 7 min
Bit rate                    : 1 819 kb/s
Width                       : 720 pixels
Height                      : 576 pixels
Display aspect ratio        : 16:9
Frame rate                  : 25.000 FPS
Standard                    : Component
Color space                 : YUV
Chroma subsampling          : 4:2:0
Bit depth                   : 8 bits
Scan type                   : Interlaced
Scan type, store method     : Separated fields
Scan order                  : Top Field First
Bits/(Pixel*Frame)          : 0.175
Stream size                 : 1.62 GiB (86%)
Color range                 : Limited
Color primaries             : BT.601 PAL
Transfer characteristics    : BT.470 System B/G
Matrix coefficients         : BT.470 System B/G
Audio
ID                          : 68 (0x44)
Menu ID                     : 1 (0x1)
Format                      : MPEG Audio
Format version              : Version 1
Format profile              : Layer 2
Codec ID                    : 3
Duration                    : 2 h 7 min
Bit rate mode               : Constant
Bit rate                    : 192 kb/s
Channel(s)                  : 2 channels
Sampling rate               : 48.0 kHz
Frame rate                  : 41.667 FPS (1152 SPF)
Compression mode            : Lossy
Stream size                 : 175 MiB (9%)
Language                    : English
Не забывайте говорить Спасибо. Не уходите с раздачи!   
Торрент: Зарегистрирован [28 окт 2018, 13:48] Для скачивания .torrent
необходима регистрация
Или скачать с помощью
MediaGet
Статус:
Проверен
 
.torrent скачан: 1 раз
Хэш: 99052e4abd4a8c3588d4a634004a3004519aed31
Размер: 1.88 ГБ (2 021 542 568 байт)
   Стать Автором раздачи
   
Цитата

Вернуться в Индийское кино

Кто сейчас на конференции

Сейчас эту тему просматривают: нет зарегистрированных пользователей и гости: 1